10 (1979).720p.H264.ita.eng.Ac3.sub.ita.eng-MIRCrew – Torrent download

Ecco a voi il torrent 10 (1979).720p.H264.ita.eng.Ac3.sub.ita.eng-MIRCrew - proveniente dagli archivi di Torrent

Lo staff di Cultura digitale al fine di promuovere la cultura condivide i contenuti presenti sul sito il corsaro nero.

Nome del Torrent: 10 (1979).720p.H264.ita.eng.Ac3.sub.ita.eng-MIRCrew -

Descrizione del torrent: Venite a trovarci su mircrew-releases.org10 (1979).720p.H264.ita.eng.Ac3.sub.ita.eng-MIRCrewNO FOUND ONLY ORIGINAL RELEASEMy release is always in double track audio italian and Original audiofor select it use VLC or dvd player homenot use wmp 10 (1979)Quality MIRCrew on HD 720p da 1,9 gb  Titolo originale 10Lingua originale inglese, spagnoloPaese di produzione Stati Uniti d'AmericaAnno 1979Durata 122 minRapporto 2,35:1Genere commedia, sentimentale, eroticoRegia Blake EdwardsSoggetto Blake EdwardsSceneggiatura Blake Edwards    Dudley Moore: George Webber    Julie Andrews: Samantha Taylor    Bo Derek: Jenny Hanley    Robert Webber: Hugh    Dee Wallace: Mary Lewis    Sam J. Jones: David Hanley    Nedra Volz: Mrs. Kissell    Brian Dennehy: Donald    Max Showalter: Reverend    Rad Daly: Josh Taylor    Virginia Kiser: Ethel MilesGeorge Webber è un musicista celebre, ricco ed innamorato della sua compagna, ma ha da poco superato la quarantina e attraversa una crisi esistenziale. Incrociando per caso un corteo nuziale, rimane folgorato dalla bellezza della sposa, Jenny. Forty-two year old famed composer and playwright George Webber (Dudley Moore) is going through a midlife crisis. He is seriously dating thirty-eight year old actress and singer Samantha Taylor (Dame Julie Andrews), who he loves, although he admits their connection is more intellectual than it is emotional. She, in turn, loves him, despite barely tolerating his often infantile behavior.   GeneralComplete name                            : 10 (1979).720p.H264.ita.eng.sub.ita.eng-MIRCrew10 (1979).720p.H264.ita.eng.sub.ita.eng-MIRCrew.mkvFormat                                   : MatroskaFormat version                           : Version 2File size                                : 1.94 GiBDuration                                 : 2h 2mnOverall bit rate                         : 2 275 KbpsMovie name                               :  MIRcrewEncoded date                             : UTC 2020-05-30 18:23:34Writing application                      : Lavf54.63.100Writing library                          : Lavf54.63.100COMMENT                                  : MIRCrewVideoID                                       : 1Format                                   : AVCFormat/Info                              : Advanced Video CodecFormat profile                           : [email protected] settings, CABAC                   : YesFormat settings, ReFrames                : 2 framesCodec ID                                 : V_MPEG4/ISO/AVCDuration                                 : 2h 2mnBit rate                                 : 1 900 KbpsWidth                                    : 1 280 pixelsHeight                                   : 528 pixelsDisplay aspect ratio                     : 2.40:1Frame rate mode                          : VariableFrame rate                               : 23.976 fpsColor space                              : YUVChroma subsampling                       : 4:2:0Bit depth                                : 8 bitsScan type                                : ProgressiveBits/(Pixel*Frame)                       : 0.117Stream size                              : 1.58 GiB (81%)Writing library                          : x264 core 130 r2273Encoding settings                        : cabac=1 / ref=2 / deblock=1:-1:-1 / analyse=0x1:0x131 / me=hex / subme=7 / psy=1 / psy_rd=1.00:0.10 / mixed_ref=0 / me_range=16 / chroma_me=1 / trellis=1 / 8x8dct=0 / cqm=0 / deadzone=21,11 / fast_pskip=1 / chroma_qp_offset=-3 / threads=9 / lookahead_threads=1 / sliced_threads=0 / nr=0 / decimate=1 / interlaced=0 / bluray_compat=0 / constrained_intra=0 / bframes=3 / b_pyramid=0 / b_adapt=1 / b_bias=0 / direct=3 / weightb=1 / open_gop=0 / weightp=2 / keyint=230 / keyint_min=23 / scenecut=40 / intra_refresh=0 / rc_lookahead=40 / rc=abr / mbtree=1 / bitrate=1900 / ratetol=1.0 / qcomp=0.60 / qpmin=10 / qpmax=69 / qpstep=4 / vbv_maxrate=24000 / vbv_bufsize=24000 / nal_hrd=none / ip_ratio=1.40 / aq=1:1.00Language                                 : ItalianDefault                                  : YesForced                                   : NoDURATION                                 : 02:02:19.332000000NUMBER_OF_FRAMES                         : 175968NUMBER_OF_BYTES                          : 2154559353_STATISTICS_WRITING_APP                  : mkvmerge v20.0.0 ('I Am The Sun' 64-bit_STATISTICS_WRITING_DATE_UTC             : 2019-09-06 04:48:16_STATISTICS_TAGS                         : BPS DURATION NUMBER_OF_FRAMES NUMBER_OF_BYTESAudio #1ID                                       : 2Format                                   : AC-3Format/Info                              : Audio Coding 3Mode extension                           : CM (complete main)Codec ID                                 : A_AC3Duration                                 : 2h 2mnBit rate mode                            : ConstantBit rate                                 : 192 KbpsChannel(s)                               : 1 channelChannel positions                        : Front: CSampling rate                            : 48.0 KHzBit depth                                : 16 bitsCompression mode                         : LossyDelay relative to video                  : 1mn 5sStream size                              : 168 MiB (8%)Language                                 : ItalianDefault                                  : YesForced                                   : NoDURATION                                 : 02:02:19.360000000NUMBER_OF_FRAMES                         : 229355NUMBER_OF_BYTES                          : 234859520_STATISTICS_WRITING_APP                  : mkvmerge v20.0.0 ('I Am The Sun' 64-bit_STATISTICS_WRITING_DATE_UTC             : 2019-09-06 04:48:16_STATISTICS_TAGS                         : BPS DURATION NUMBER_OF_FRAMES NUMBER_OF_BYTESAudio #2ID                                       : 3Format                                   : AC-3Format/Info                              : Audio Coding 3Mode extension                           : CM (complete main)Codec ID                                 : A_AC3Duration                                 : 2h 2mnBit rate mode                            : ConstantBit rate                                 : 192 KbpsChannel(s)                               : 1 channelChannel positions                        : Front: CSampling rate                            : 48.0 KHzBit depth                                : 16 bitsCompression mode                         : LossyDelay relative to video                  : 1mn 5sStream size                              : 168 MiB (8%)Language                                 : EnglishDefault                                  : NoForced                                   : NoDURATION                                 : 02:02:19.349000000NUMBER_OF_FRAMES                         : 344032NUMBER_OF_BYTES                          : 198349711_STATISTICS_WRITING_APP                  : mkvmerge v20.0.0 ('I Am The Sun' 64-bit_STATISTICS_WRITING_DATE_UTC             : 2019-09-06 04:48:16_STATISTICS_TAGS                         : BPS DURATION NUMBER_OF_FRAMES NUMBER_OF_BYTES

Dimensione: 1.94 GB

Categoria: BDRip

ISCRIVETEVI AL FORUM

Presto ci saranno molte novità, registratevi gratuitamente al forum

Ricordiamo a tutti che su Cultura Digitale non sono presenti nessun file, questo torrent è di proprietà del Corsaro nero. pubblicato sul loro sito al seguente indirizzo: 10 (1979).720p.H264.ita.eng.Ac3.sub.ita.eng-MIRCrew -

COLLEGAMENTO AL TORRENT

Importante: è un link con magnet, si dovrebbe aprire da solo. Se vi esce errore 404 nel vostro computer non è installato un programma per torrent o l’estensione che fa aprire i file magnet.

 Copiate questo link
magnet:?xt=urn:btih:7ecaa323441578bc29336cffc599b093e737ca3a&dn=10+%281979%29.720p.H264.ita.eng.Ac3.sub.ita.eng-MIRCrew&tr=udp%3A%2F%2Ftracker.torrent.eu.org%3A451%2Fannounce

Per firefox usare questa estensione – Per Chrome usare questa estensione
Oppure usare Torxh web browser

Se i link risultassero non raggiungibili o bloccati a livello DNS

Seguite la guida Su Questo Articolo : GUIDA COME CAMBIARE DNS