13.Reasons.Why.S04E01.Winter.Break.1080p.WEBRip.ITA.ENG.DDP5.1.x264-BlackBit.mkv – Torrent download

Ecco a voi il torrent 13.Reasons.Why.S04E01.Winter.Break.1080p.WEBRip.ITA.ENG.DDP5.1.x264-BlackBit.mkv - proveniente dagli archivi di Torrent

Lo staff di Cultura digitale al fine di promuovere la cultura condivide i contenuti presenti sul sito il corsaro nero.

Nome del Torrent: 13.Reasons.Why.S04E01.Winter.Break.1080p.WEBRip.ITA.ENG.DDP5.1.x264-BlackBit.mkv -

Descrizione del torrent: Clicca qua per ingrandire questa immagine[size=36pt]Tredici - Stagione 4[/size]Clicca qua per ingrandire questa immagineTitolo originale 13 Reasons WhyPaese Stati Uniti d'AmericaAnno 2017-2020Formato serie TVGenere dramma adolescenziale, giallo, thrillerStagioni 4Episodi 49Durata 49-71 min (episodio)Lingua originale ingleseRapporto 16:9Clicca qua per ingrandire questa immagineAdattamento del bestseller di Jay Asher, racconta di un timido liceale che riceve una scatola di nastri registrati da Hannah Baker, la ragazza per cui aveva una cotta e che si è tolta la vita. Ogni nastro è per una persona diversa e Hannah spiega a dodici persone il ruolo che hanno giocato nella sua morte dando tredici motivi per cui si è tolta la vita.Clicca qua per ingrandire questa immagine[spoiler][/spoiler]Clicca qua per ingrandire questa immagine[spoiler]GeneralUnique ID : 118900863925355820102061474265233724163 (0x597379325D0C04958756C2B4D36D9303)Complete name : C:UsersAdministratorVideosTredici S0413.Reasons.Why.S04E01.Winter.Break.1080p.WEBRip.ITA.ENG.DDP5.1.x264-BlackBit.mkvFormat : MatroskaFormat version : Version 4File size : 2.02 GiBDuration : 58 min 56 sOverall bit rate mode : VariableOverall bit rate : 4 916 kb/sEncoded date : UTC 2020-06-05 07:09:37Writing application : mkvmerge v46.0.0 ('No Deeper Escape' 64-bitWriting library : libebml v1.3.10 + libmatroska v1.5.2VideoID : 1Format : AVCFormat/Info : Advanced Video CodecFormat profile : [email protected] settings : CABAC / 3 Ref FramesFormat settings, CABAC : YesFormat settings, Reference : 3 framesCodec ID : V_MPEG4/ISO/AVCDuration : 58 min 56 sBit rate mode : VariableBit rate : 3 634 kb/sNominal bit rate : 3 830 kb/sMaximum bit rate : 5 745 kb/sWidth : 1 920 pixelsHeight : 1 080 pixelsDisplay aspect ratio : 16:9Frame rate mode : ConstantFrame rate : 23.976 (24000/1001) FPSColor space : YUVChroma subsampling : 4:2:0Bit depth : 8 bitsScan type : ProgressiveBits/(Pixel*Frame) : 0.073Stream size : 1.50 GiB (74%)Writing library : x264 core 148 r2717 0d2410dEncoding settings : cabac=1 / ref=3 / deblock=1:0:0 / analyse=0x1:0x111 / me=umh / subme=10 / psy=1 / psy_rd=1.00:0.00 / mixed_ref=1 / me_range=24 / chroma_me=1 / trellis=2 / 8x8dct=0 / cqm=0 / deadzone=21,11 / fast_pskip=1 / chroma_qp_offset=-2 / threads=8 / lookahead_threads=1 / sliced_threads=0 / nr=0 / decimate=1 / interlaced=0 / bluray_compat=0 / stitchable=1 / constrained_intra=0 / bframes=2 / b_pyramid=0 / b_adapt=2 / b_bias=0 / direct=3 / weightb=1 / open_gop=0 / weightp=2 / keyint=250 / keyint_min=23 / scenecut=0 / intra_refresh=0 / rc_lookahead=48 / rc=2pass / mbtree=1 / bitrate=3830 / ratetol=1.0 / qcomp=0.50 / qpmin=6 / qpmax=51 / qpstep=4 / cplxblur=20.0 / qblur=0.5 / vbv_maxrate=5745 / vbv_bufsize=7660 / nal_hrd=vbr / filler=0 / ip_ratio=1.40 / aq=1:1.00Default : YesForced : YesAudio #1ID : 2Format : E-AC-3Format/Info : Enhanced AC-3Commercial name : Dolby Digital PlusCodec ID : A_EAC3Duration : 58 min 56 sBit rate mode : ConstantBit rate : 640 kb/sChannel(s) : 6 channelsChannel layout : L R C LFE Ls RsSampling rate : 48.0 kHzFrame rate : 31.250 FPS (1536 SPF)Compression mode : LossyStream size : 270 MiB (13%)Language : ItalianService kind : Complete MainDefault : YesForced : YesAudio #2ID : 3Format : E-AC-3Format/Info : Enhanced AC-3Commercial name : Dolby Digital PlusCodec ID : A_EAC3Duration : 58 min 56 sBit rate mode : ConstantBit rate : 640 kb/sChannel(s) : 6 channelsChannel layout : L R C LFE Ls RsSampling rate : 48.0 kHzFrame rate : 31.250 FPS (1536 SPF)Compression mode : LossyStream size : 270 MiB (13%)Title : EnglishLanguage : EnglishService kind : Complete MainDefault : NoForced : NoText #1ID : 4Format : UTF-8Codec ID : S_TEXT/UTF8Codec ID/Info : UTF-8 Plain TextDuration : 56 min 57 sBit rate : 1 b/sCount of elements : 17Stream size : 611 Bytes (0%)Language : ItalianDefault : YesForced : YesText #2ID : 5Format : UTF-8Codec ID : S_TEXT/UTF8Codec ID/Info : UTF-8 Plain TextDuration : 56 min 57 sBit rate : 55 b/sCount of elements : 841Stream size : 23.3 KiB (0%)Title : ItalianLanguage : ItalianDefault : NoForced : NoText #3ID : 6Format : UTF-8Codec ID : S_TEXT/UTF8Codec ID/Info : UTF-8 Plain TextDuration : 56 min 34 sBit rate : 73 b/sCount of elements : 997Stream size : 30.3 KiB (0%)Title : English [SDH]Language : EnglishDefault : NoForced : No[/spoiler]

Dimensione: 2.02 GB

Categoria: SerieTv

ISCRIVETEVI AL FORUM

Presto ci saranno molte novità, registratevi gratuitamente al forum

Ricordiamo a tutti che su Cultura Digitale non sono presenti nessun file, questo torrent è di proprietà del Corsaro nero. pubblicato sul loro sito al seguente indirizzo: 13.Reasons.Why.S04E01.Winter.Break.1080p.WEBRip.ITA.ENG.DDP5.1.x264-BlackBit.mkv -

COLLEGAMENTO AL TORRENT

Importante: è un link con magnet, si dovrebbe aprire da solo. Se vi esce errore 404 nel vostro computer non è installato un programma per torrent o l’estensione che fa aprire i file magnet.

 Copiate questo link
magnet:?xt=urn:btih:07f1d11244aee3b762aa24b08da6ceae561bfd23&dn=13.Reasons.Why.S04E01.Winter.Break.1080p.WEBRip.ITA.ENG.DDP5.1.x264-BlackBit.mkv&tr=udp%3A%2F%2Ftracker.coppersurfer.tk%3A6969%2Fannounce

Per firefox usare questa estensione – Per Chrome usare questa estensione
Oppure usare Torxh web browser

Se i link risultassero non raggiungibili o bloccati a livello DNS

Seguite la guida Su Questo Articolo : GUIDA COME CAMBIARE DNS