– 1997: Fuga da New York (1981).1080p.H264.Ita.Eng.Ac3.sub.ita.eng-MIRCrew – – Torrent dowload

Ecco a voi il torrent – 1997: Fuga da New York (1981).1080p.H264.Ita.Eng.Ac3.sub.ita.eng-MIRCrew – proveniente dagli archivi di [Torrent]

Lo staff di Cultura digitale al fine di promuovere la cultura condivide i contenuti presenti sul sito il corsaro nero.

Nome del Torrent: – 1997: Fuga da New York (1981).1080p.H264.Ita.Eng.Ac3.sub.ita.eng-MIRCrew –

Descrizione del torrent: Escape from New York – 1997: Fuga da New York (1981).1080p.H264.Ita.Eng.Ac3.sub.ita.eng-MIRCrew Clicca qua per ingrandire questa immagineNO FOUND ONLY ORIGINAL RELEASEMy release is always in double track audio italian and Original audiofor select it use VLC or dvd player homenot use wmp 1997: Fuga da New York – Escape from New York (1981)Quality MIRCrew on HD 1080p da 2,0 gbClicca qua per ingrandire questa immagine  Clicca qua per ingrandire questa immagine 1997: Fuga da New York (Escape from New York) è un film di fantascienza del 1981, diretto da John Carpenter, con Kurt Russell, Lee Van Cleef, Ernest Borgnine, Donald Pleasence, Isaac Hayes ed Harry Dean Stanton. È uno degli ultimi film con Lee Van Cleef, attore di culto delle pellicole western.La pellicola introdusse un personaggio-icona del cinema: l'antieroe "Jena" Plissken (chiamato "Snake" Plissken in inglese), interpretato da Russell. Il soprannome originale del personaggio è probabilmente dovuto al vistoso tatuaggio a forma di serpente (snake in inglese) sul ventre.Nel 1996, Carpenter ha girato il sequel, Fuga da Los Angeles.  Titolo originale Escape from New YorkLingua originale inglesePaese di produzione Regno Unito, USAAnno 1981Durata 99 minRapporto 2.35 : 1Genere azione, fantascienzaRegia John CarpenterSoggetto John Carpenter, Nick CastleSceneggiatura John Carpenter, Nick CastleProduttore Debra Hill, Larry J. FrancoFotografia Dean CundeyMontaggio Todd RamsayEffetti speciali Roy ArbogastMusiche John Carpenter, Alan HowarthScenografia Joe AlvesCostumi Stephen LoomisTrucco Ken Chase   Kurt Russell: Jena Plissken   Lee Van Cleef: commissario Bob Hauk   Ernest Borgnine: tassista   Donald Pleasence: presidente degli Stati Uniti   Isaac Hayes: il Duca   Frank Doubleday: Romero   Season Hubley: ragazza al Chock Full O'Nuts   Harry Dean Stanton: Harold 'Mente' Helman   Adrienne Barbeau: Maggie   Tom Atkins: Rehme   Charles Cyphers: segretario di stato   Nancy Stephens: capo dei terroristi 1997: Jena Plissken, ex eroe di guerra pluridecorato che si è dato al crimine, condannato alla pena capitale, sta per fare ingresso nel carcere di massima sicurezza di New York. Contemporaneamente l'aereo presidenziale viene dirottato da alcuni terroristi suicidi che intendono far schiantare il velivolo contro uno dei grattacieli di New York……………. In 1997, when the U.S. president crashes into Manhattan, now a giant maximum security prison, a convicted bank robber is sent in to rescue him.   Clicca qua per ingrandire questa immagineClicca qua per ingrandire questa immagineClicca qua per ingrandire questa immagineClicca qua per ingrandire questa immagine[spoiler]GeneralGeneralComplete name                            : Fuga da New York – Escape from New York (1981).1080p.H264.ita.eng.sub.ita.eng-MIRCrewFuga da New York – Escape from New York (1981).1080p.H264.ita.eng.sub.ita.eng-MIRCrew.mkvFormat                                   : MatroskaFormat version                           : Version 2File size                                : 2.03 GiBDuration                                 : 1h 39mnOverall bit rate                         : 2 937 KbpsMovie name                               : MIRCrewEncoded date                             : UTC 2019-11-08 17:18:15Writing application                      : mkvmerge v5.8.0 ('No Sleep / Pillow&#39 built on Sep  2 2012 15:37:04Writing library                          : Lavf54.63.100COMMENT                                  : MIRCrewVideoID                                       : 1Format                                   : AVCFormat/Info                              : Advanced Video CodecFormat profile                           : [email protected] settings, CABAC                   : YesFormat settings, ReFrames                : 2 framesCodec ID                                 : V_MPEG4/ISO/AVCDuration                                 : 1h 39mnBit rate                                 : 2 600 KbpsWidth                                    : 1 920 pixelsHeight                                   : 816 pixelsDisplay aspect ratio                     : 2.35:1Frame rate mode                          : VariableFrame rate                               : 24.000 fpsColor space                              : YUVChroma subsampling                       : 4:2:0Bit depth                                : 8 bitsScan type                                : ProgressiveBits/(Pixel*Frame)                       : 0.069Stream size                              : 1.73 GiB (85%)Title                                    : MIRCrewWriting library                          : x264 core 130 r2273Encoding settings                        : cabac=1 / ref=2 / deblock=1:-1:-1 / analyse=0x1:0x131 / me=hex / subme=7 / psy=1 / psy_rd=1.00:0.10 / mixed_ref=0 / me_range=16 / chroma_me=1 / trellis=1 / 8x8dct=0 / cqm=0 / deadzone=21,11 / fast_pskip=1 / chroma_qp_offset=-3 / threads=9 / lookahead_threads=1 / sliced_threads=0 / nr=0 / decimate=1 / interlaced=0 / bluray_compat=0 / constrained_intra=0 / bframes=3 / b_pyramid=0 / b_adapt=1 / b_bias=0 / direct=3 / weightb=1 / open_gop=0 / weightp=2 / keyint=240 / keyint_min=24 / scenecut=40 / intra_refresh=0 / rc_lookahead=40 / rc=abr / mbtree=1 / bitrate=2600 / ratetol=1.0 / qcomp=0.60 / qpmin=10 / qpmax=69 / qpstep=4 / vbv_maxrate=24000 / vbv_bufsize=24000 / nal_hrd=none / ip_ratio=1.40 / aq=1:1.00Language                                 : ItalianDefault                                  : YesForced                                   : NoDURATION                                 : 01:39:07.334000000NUMBER_OF_FRAMES                         : 142736NUMBER_OF_BYTES                          : 8260914434_STATISTICS_WRITING_APP                  : mkvmerge v39.0.0 ('In The Waiting Line&#39 64-bit_STATISTICS_WRITING_DATE_UTC             : 2019-11-08 17:18:15_STATISTICS_TAGS                         : BPS DURATION NUMBER_OF_FRAMES NUMBER_OF_BYTESAudio #1ID                                       : 2Format                                   : AC-3Format/Info                              : Audio Coding 3Mode extension                           : CM (complete main)Codec ID                                 : A_AC3Duration                                 : 1h 39mnBit rate mode                            : ConstantBit rate                                 : 192 KbpsChannel(s)                               : 2 channelsChannel positions                        : Front: L RSampling rate                            : 48.0 KHzBit depth                                : 16 bitsCompression mode                         : LossyDelay relative to video                  : -5msStream size                              : 136 MiB (7%)Title                                    : Ita Ac3Language                                 : ItalianDefault                                  : NoForced                                   : NoDURATION                                 : 01:38:56.043000000NUMBER_OF_FRAMES                         : 278252NUMBER_OF_BYTES                          : 260897666_STATISTICS_WRITING_APP                  : mkvmerge v39.0.0 ('In The Waiting Line&#39 64-bit_STATISTICS_WRITING_DATE_UTC             : 2019-11-08 17:18:15_STATISTICS_TAGS                         : BPS DURATION NUMBER_OF_FRAMES NUMBER_OF_BYTESAudio #2ID                                       : 3Format                                   : AC-3Format/Info                              : Audio Coding 3Mode extension                           : CM (complete main)Codec ID                                 : A_AC3Duration                                 : 1h 39mnBit rate mode                            : ConstantBit rate                                 : 192 KbpsChannel(s)                               : 2 channelsChannel positions                        : Front: L RSampling rate                            : 48.0 KHzBit depth                                : 16 bitsCompression mode                         : LossyDelay relative to video                  : -5msStream size                              : 136 MiB (7%)Title                                    : Eng Ac3Language                                 : EnglishDefault                                  : NoForced                                   : NoDURATION                                 : 01:39:07.328000000NUMBER_OF_FRAMES                         : 557562NUMBER_OF_BYTES                          : 1121814744_STATISTICS_WRITING_APP                  : mkvmerge v39.0.0 ('In The Waiting Line&#39 64-bit_STATISTICS_WRITING_DATE_UTC             : 2019-11-08 17:18:15_STATISTICS_TAGS                         : BPS DURATION NUMBER_OF_FRAMES NUMBER_OF_BYTESMenu00:00:00.000                             : :00:00:00.00000:08:59.958                             : :00:08:59.95800:17:25.292                             : :00:17:25.29200:24:17.583                             : :00:24:17.58300:32:39.958                             : :00:32:39.95800:40:08.417                             : :00:40:08.41700:51:43.625                             : :00:51:43.62501:00:08.208                             : :01:00:08.20801:13:58.708                             : :01:13:58.70801:18:21.500                             : :01:18:21.50001:33:42.333                             : :01:33:42.33301:34:45.042                             : :01:34:45.042[/spoiler]Clicca qua per ingrandire questa immagine

Dimensione:2.04 GB

Categoria: BDRip

ISCRIVETEVI AL FORUM

Presto ci saranno molte novità, registratevi gratuitamente al forum

Ricordiamo a tutti che su Cultura Digitale non sono presenti nessun file, questo torrent è di proprietà del Corsaro nero. pubblicato sul loro sito al seguente indirizzo: – 1997: Fuga da New York (1981).1080p.H264.Ita.Eng.Ac3.sub.ita.eng-MIRCrew –

COLLEGAMENTO AL TORRENT

Importante: è un link con magnet, si dovrebbe aprire da solo. Se vi esce errore 404 nel vostro computer non è installato un programma per torrent o l’estensione che fa aprire i file magnet.

 Copiate questo link
magnet:?xt=urn:btih:23c819502231e31f102de793b934cff7e538c27f&dn=1997%3A+Fuga+da+New+York+%281981%29.1080p.H264.Ita.Eng.Ac3.sub.ita.eng-MIRCrew+&tr=udp%3A%2F%2Ftracker.torrent.eu.org%3A451%2Fannounce

Per firefox usare questa estensione – Per Chrome usare questa estensione
Oppure usare Torxh web browser

Se i link risultassero non raggiungibili o bloccati a livello DNS

Seguite la guida Su Questo Articolo : GUIDA COME CAMBIARE DNS