9-1-1.Lone.Star.S01E05-06.1080p.WEBMux.ITA.ENG.DD5.1.x264-BlackBit – Torrent download

Ecco a voi il torrent 9-1-1.Lone.Star.S01E05-06.1080p.WEBMux.ITA.ENG.DD5.1.x264-BlackBit - proveniente dagli archivi di Torrent

Lo staff di Cultura digitale al fine di promuovere la cultura condivide i contenuti presenti sul sito il corsaro nero.

Nome del Torrent: 9-1-1.Lone.Star.S01E05-06.1080p.WEBMux.ITA.ENG.DD5.1.x264-BlackBit -

Descrizione del torrent: 911 Lone Star - Stagione 1[/sizePaese Stati Uniti d'AmericaAnno 2020 – in produzioneFormato serie TVGenere drammatico, poliziesco, azioneStagioni 1Episodi 10Durata 42-48 min (episodio)Lingua originale ingleseRapporto 16:9Un agente di polizia di New York viene trasferito a Austin, Texas insieme al figlio. Qui prova a salvare la vita delle persone mentre, al tempo stesso, tenta di risolvere i propri problemi personali.[spoiler[/spoiler[spoilerGeneralUnique ID : 75815172509236722559866601433912559847 (0x39097899D78BE579FDFDFFD4BCCFC8E7)Complete name : C:UsersAdministratorVideos9-1-1 Lone Star S019-1-1.Lone.Star.S01E01.Pilot.1080p.WEBMux.ITA.ENG.DD5.1.x264-BlackBit.mkvFormat : MatroskaFormat version : Version 4File size : 3.53 GiBDuration : 48 min 23 sOverall bit rate : 10.4 Mb/sEncoded date : UTC 2020-06-01 20:26:03Writing application : mkvmerge v46.0.0 ('No Deeper Escape' 64-bitWriting library : libebml v1.3.10 + libmatroska v1.5.2VideoID : 1Format : AVCFormat/Info : Advanced Video CodecFormat profile : [email protected] settings : CABAC / 4 Ref FramesFormat settings, CABAC : YesFormat settings, Reference : 4 framesCodec ID : V_MPEG4/ISO/AVCDuration : 48 min 23 sBit rate mode : ConstantBit rate : 9 409 kb/sNominal bit rate : 10 000 kb/sWidth : 1 920 pixelsHeight : 1 080 pixelsDisplay aspect ratio : 16:9Frame rate mode : ConstantFrame rate : 23.976 (24000/1001) FPSColor space : YUVChroma subsampling : 4:2:0Bit depth : 8 bitsScan type : ProgressiveBits/(Pixel*Frame) : 0.189Stream size : 3.18 GiB (90%)Default : YesForced : YesColor range : LimitedColor primaries : BT.709Transfer characteristics : BT.709Matrix coefficients : BT.709Audio #1ID : 2Format : AC-3Format/Info : Audio Coding 3Commercial name : Dolby DigitalCodec ID : A_AC3Duration : 48 min 22 sBit rate mode : ConstantBit rate : 384 kb/sChannel(s) : 6 channelsChannel layout : L R C LFE Ls RsSampling rate : 48.0 kHzFrame rate : 31.250 FPS (1536 SPF)Compression mode : LossyStream size : 133 MiB (4%)Language : ItalianService kind : Complete MainDefault : YesForced : YesAudio #2ID : 3Format : E-AC-3Format/Info : Enhanced AC-3Commercial name : Dolby Digital PlusCodec ID : A_EAC3Duration : 48 min 23 sBit rate mode : ConstantBit rate : 640 kb/sChannel(s) : 6 channelsChannel layout : L R C LFE Ls RsSampling rate : 48.0 kHzFrame rate : 31.250 FPS (1536 SPF)Compression mode : LossyStream size : 221 MiB (6%)Language : EnglishService kind : Complete MainDefault : NoForced : NoText #1ID : 4Format : UTF-8Codec ID : S_TEXT/UTF8Codec ID/Info : UTF-8 Plain TextDuration : 40 min 40 sBit rate : 0 b/sCount of elements : 2Stream size : 52.0 Bytes (0%)Language : ItalianDefault : YesForced : YesText #2ID : 5Format : UTF-8Codec ID : S_TEXT/UTF8Codec ID/Info : UTF-8 Plain TextDuration : 47 min 22 sBit rate : 82 b/sCount of elements : 826Stream size : 28.5 KiB (0%)Language : ItalianDefault : NoForced : NoText #3ID : 6Format : UTF-8Codec ID : S_TEXT/UTF8Codec ID/Info : UTF-8 Plain TextDuration : 48 min 20 sBit rate : 81 b/sCount of elements : 1094Stream size : 28.8 KiB (0%)Title : SDHLanguage : EnglishDefault : NoForced : No[/spoiler

Dimensione: 5.96 GB

Categoria: SerieTv

ISCRIVETEVI AL FORUM

Presto ci saranno molte novità, registratevi gratuitamente al forum

Ricordiamo a tutti che su Cultura Digitale non sono presenti nessun file, questo torrent è di proprietà del Corsaro nero. pubblicato sul loro sito al seguente indirizzo: 9-1-1.Lone.Star.S01E05-06.1080p.WEBMux.ITA.ENG.DD5.1.x264-BlackBit -

COLLEGAMENTO AL TORRENT

Importante: è un link con magnet, si dovrebbe aprire da solo. Se vi esce errore 404 nel vostro computer non è installato un programma per torrent o l’estensione che fa aprire i file magnet.

 Copiate questo link
magnet:?xt=urn:btih:bfa0cad7a02f67ae12f06f8be4bc347e40f0e8f4&dn=9-1-1.Lone.Star.S01E05-06.1080p.WEBMux.ITA.ENG.DD5.1.x264-BlackBit&tr=udp%3A%2F%2Ftracker.coppersurfer.tk%3A6969%2Fannounce

Per firefox usare questa estensione – Per Chrome usare questa estensione
Oppure usare Torxh web browser

Se i link risultassero non raggiungibili o bloccati a livello DNS

Seguite la guida Su Questo Articolo : GUIDA COME CAMBIARE DNS