9-1-1.Lone.Star.S01E05-06.WEBMux.ITA.ENG.DD5.1.x264-BlackBit – Torrent download

Ecco a voi il torrent 9-1-1.Lone.Star.S01E05-06.WEBMux.ITA.ENG.DD5.1.x264-BlackBit - proveniente dagli archivi di Torrent

Lo staff di Cultura digitale al fine di promuovere la cultura condivide i contenuti presenti sul sito il corsaro nero.

Nome del Torrent: 9-1-1.Lone.Star.S01E05-06.WEBMux.ITA.ENG.DD5.1.x264-BlackBit -

Descrizione del torrent: 911 Lone Star - Stagione 1[/sizePaese Stati Uniti d'AmericaAnno 2020 – in produzioneFormato serie TVGenere drammatico, poliziesco, azioneStagioni 1Episodi 10Durata 42-48 min (episodio)Lingua originale ingleseRapporto 16:9Un agente di polizia di New York viene trasferito a Austin, Texas insieme al figlio. Qui prova a salvare la vita delle persone mentre, al tempo stesso, tenta di risolvere i propri problemi personali.[spoiler[/spoiler[spoilerGeneralUnique ID : 46555849702376791615763758241628010654 (0x2306549BD532B9C495A4DF81E81FB89E)Complete name : C:UsersAdministratorVideos9-1-1 Lone Star S019-1-1.Lone.Star.S01E01.Pilot.WEBMux.ITA.ENG.DD5.1.x264-BlackBit.mkvFormat : MatroskaFormat version : Version 4File size : 708 MiBDuration : 48 min 23 sOverall bit rate : 2 047 kb/sEncoded date : UTC 2020-06-01 20:31:27Writing application : mkvmerge v46.0.0 ('No Deeper Escape' 64-bitWriting library : libebml v1.3.10 + libmatroska v1.5.2VideoID : 1Format : AVCFormat/Info : Advanced Video CodecFormat profile : [email protected] settings : CABAC / 15 Ref FramesFormat settings, CABAC : YesFormat settings, Reference : 15 framesCodec ID : V_MPEG4/ISO/AVCDuration : 48 min 23 sBit rate : 1 448 kb/sWidth : 720 pixelsHeight : 404 pixelsDisplay aspect ratio : 16:9Frame rate mode : ConstantFrame rate : 23.976 (24000/1001) FPSColor space : YUVChroma subsampling : 4:2:0Bit depth : 8 bitsScan type : ProgressiveBits/(Pixel*Frame) : 0.208Stream size : 501 MiB (71%)Writing library : x264 core 157 r2969 d4099ddEncoding settings : cabac=1 / ref=15 / deblock=1:0:0 / analyse=0x3:0x133 / me=umh / subme=9 / psy=1 / psy_rd=1.00:0.00 / mixed_ref=1 / me_range=24 / chroma_me=1 / trellis=2 / 8x8dct=1 / cqm=0 / deadzone=21,11 / fast_pskip=0 / chroma_qp_offset=-2 / threads=12 / lookahead_threads=2 / sliced_threads=0 / nr=0 / decimate=1 / interlaced=0 / bluray_compat=0 / constrained_intra=0 / bframes=8 / b_pyramid=2 / b_adapt=2 / b_bias=0 / direct=3 / weightb=1 / open_gop=0 / weightp=2 / keyint=240 / keyint_min=23 / scenecut=40 / intra_refresh=0 / rc_lookahead=60 / rc=crf / mbtree=0 / crf=17.0 / qcomp=0.60 / qpmin=0 / qpmax=69 / qpstep=4 / vbv_maxrate=17500 / vbv_bufsize=17500 / crf_max=0.0 / nal_hrd=none / filler=0 / ip_ratio=1.40 / pb_ratio=1.30 / aq=1:1.00Default : YesForced : YesAudio #1ID : 2Format : AC-3Format/Info : Audio Coding 3Commercial name : Dolby DigitalCodec ID : A_AC3Duration : 48 min 22 sBit rate mode : ConstantBit rate : 384 kb/sChannel(s) : 6 channelsChannel layout : L R C LFE Ls RsSampling rate : 48.0 kHzFrame rate : 31.250 FPS (1536 SPF)Compression mode : LossyStream size : 133 MiB (19%)Language : ItalianService kind : Complete MainDefault : YesForced : YesAudio #2ID : 3Format : AAC LCFormat/Info : Advanced Audio Codec Low ComplexityCodec ID : A_AAC-2Duration : 48 min 23 sBit rate : 212 kb/sChannel(s) : 2 channelsChannel layout : L RSampling rate : 48.0 kHzFrame rate : 46.875 FPS (1024 SPF)Compression mode : LossyDelay relative to video : 9 msStream size : 73.3 MiB (10%)Language : EnglishDefault : NoForced : NoText #1ID : 4Format : UTF-8Codec ID : S_TEXT/UTF8Codec ID/Info : UTF-8 Plain TextDuration : 40 min 40 sBit rate : 0 b/sCount of elements : 2Stream size : 52.0 Bytes (0%)Language : ItalianDefault : YesForced : YesText #2ID : 5Format : UTF-8Codec ID : S_TEXT/UTF8Codec ID/Info : UTF-8 Plain TextDuration : 47 min 22 sBit rate : 82 b/sCount of elements : 826Stream size : 28.5 KiB (0%)Language : ItalianDefault : NoForced : NoText #3ID : 6Format : UTF-8Codec ID : S_TEXT/UTF8Codec ID/Info : UTF-8 Plain TextDuration : 48 min 20 sBit rate : 81 b/sCount of elements : 1094Stream size : 28.8 KiB (0%)Title : SDHLanguage : EnglishDefault : NoForced : No[/spoiler

Dimensione: 1.16 GB

Categoria: SerieTv

ISCRIVETEVI AL FORUM

Presto ci saranno molte novità, registratevi gratuitamente al forum

Ricordiamo a tutti che su Cultura Digitale non sono presenti nessun file, questo torrent è di proprietà del Corsaro nero. pubblicato sul loro sito al seguente indirizzo: 9-1-1.Lone.Star.S01E05-06.WEBMux.ITA.ENG.DD5.1.x264-BlackBit -

COLLEGAMENTO AL TORRENT

Importante: è un link con magnet, si dovrebbe aprire da solo. Se vi esce errore 404 nel vostro computer non è installato un programma per torrent o l’estensione che fa aprire i file magnet.

 Copiate questo link
magnet:?xt=urn:btih:e014b19b3f34faa27142bba8d698e39d6dd8e733&dn=9-1-1.Lone.Star.S01E05-06.WEBMux.ITA.ENG.DD5.1.x264-BlackBit&tr=udp%3A%2F%2Ftracker.coppersurfer.tk%3A6969%2Fannounce

Per firefox usare questa estensione – Per Chrome usare questa estensione
Oppure usare Torxh web browser

Se i link risultassero non raggiungibili o bloccati a livello DNS

Seguite la guida Su Questo Articolo : GUIDA COME CAMBIARE DNS