A Beautiful Day (2017).720p.H264.ita.eng.Ac3-5.1.sub.ita.eng-MIRCrew – Torrent download

Ecco a voi il torrent A Beautiful Day (2017).720p.H264.ita.eng.Ac3-5.1.sub.ita.eng-MIRCrew - proveniente dagli archivi di Torrent

Lo staff di Cultura digitale al fine di promuovere la cultura condivide i contenuti presenti sul sito il corsaro nero.

Nome del Torrent: A Beautiful Day (2017).720p.H264.ita.eng.Ac3-5.1.sub.ita.eng-MIRCrew -

Descrizione del torrent: Venite a trovarci su mircrew-releases.orgYou Were Never Really Here - A Beautiful Day (2017).720p.H264.ita.eng.Ac3-5.1.sub.ita.eng-MIRCrewNO FOUND ONLY ORIGINAL RELEASESOTTOTITOLI ITALIANI PER NON UDENTI INCLUSIMy release is always in double track audio italian and Original audiofor select it use VLC or dvd player homenot use wmp A Beautiful Day - You Were Never Really Here (2017)Quality MIRCrew on HD 720p da 1,7 gb Titolo originale You Were Never Really HereLingua originale inglesePaese di produzione Regno UnitoAnno 2017Durata 85 minGenere drammatico, thrillerRegia Lynne RamsaySoggetto dal libro di Jonathan AmesSceneggiatura Lynne Ramsay    Joaquin Phoenix: Joe    John Doman: John McClean    Judith Roberts: madre di Joe    Alex Manette: Senatore Votto    Ekaterina Samsonov: Nina Votto    Alessandro Nivola: Senatore WilliamsJoe è un veterano di guerra che soffre dei traumi subiti durante l'infanzia e che cerca di salvare alcune giovanissime donne costrette a prostituirsi, usando metodi brutali contro i rapitori. Quando rincasa, si prende cura dell'anziana madre. Joe ha continuamente dei flashback sull'abuso che lui e sua madre hanno subito dal suo violento padre e sul suo passato brutale nell'esercito e nell'FBI, venendo turbato da pensieri suicidi. A traumatized veteran, unafraid of violence, tracks down missing girls for a living. When a job spins out of control, Joe's nightmares overtake him as a conspiracy is uncovered leading to what may be his death trip or his awakening.   GeneralComplete name                            : A Beautiful Day - You Were Never Really Here (2017).720p.ita.eng.sub.ita.eng-MIRCrewA Beautiful Day - You Were Never Really Here (2017).720p.ita.eng.sub.ita.eng-MIRCrew (1).mkvFormat                                   : MatroskaFormat version                           : Version 2File size                                : 1.70 GiBDuration                                 : 1h 29mnOverall bit rate                         : 2 718 KbpsMovie name                               : MIRCrewEncoded date                             : UTC 2019-08-19 17:07:53Writing application                      : mkvmerge v5.4.0 ('Piper' built on Mar 10 2012 13:34:39Writing library                          : Lavf54.63.100ARTIST                                   : robbyrsCOMMENT                                  : MIRCrewCOPYRIGHT                                : MIRCrewVideoID                                       : 1Format                                   : AVCFormat/Info                              : Advanced Video CodecFormat profile                           : [email protected] settings, CABAC                   : YesFormat settings, ReFrames                : 2 framesCodec ID                                 : V_MPEG4/ISO/AVCDuration                                 : 1h 29mnBit rate                                 : 1 900 KbpsWidth                                    : 1 280 pixelsHeight                                   : 528 pixelsDisplay aspect ratio                     : 2.40:1Frame rate mode                          : VariableFrame rate                               : 24.000 fpsColor space                              : YUVChroma subsampling                       : 4:2:0Bit depth                                : 8 bitsScan type                                : ProgressiveBits/(Pixel*Frame)                       : 0.117Stream size                              : 1.14 GiB (67%)Title                                    : MIRCrewWriting library                          : x264 core 130 r2273Encoding settings                        : cabac=1 / ref=2 / deblock=1:-1:-1 / analyse=0x1:0x131 / me=hex / subme=7 / psy=1 / psy_rd=1.00:0.10 / mixed_ref=0 / me_range=16 / chroma_me=1 / trellis=1 / 8x8dct=0 / cqm=0 / deadzone=21,11 / fast_pskip=1 / chroma_qp_offset=-3 / threads=9 / lookahead_threads=1 / sliced_threads=0 / nr=0 / decimate=1 / interlaced=0 / bluray_compat=0 / constrained_intra=0 / bframes=3 / b_pyramid=0 / b_adapt=1 / b_bias=0 / direct=3 / weightb=1 / open_gop=0 / weightp=2 / keyint=240 / keyint_min=24 / scenecut=40 / intra_refresh=0 / rc_lookahead=40 / rc=abr / mbtree=1 / bitrate=1900 / ratetol=1.0 / qcomp=0.60 / qpmin=10 / qpmax=69 / qpstep=4 / vbv_maxrate=24000 / vbv_bufsize=24000 / nal_hrd=none / ip_ratio=1.40 / aq=1:1.00Language                                 : ItalianDefault                                  : YesForced                                   : NoDURATION                                 : 01:29:28.500000000NUMBER_OF_FRAMES                         : 128844NUMBER_OF_BYTES                          : 1377887907_STATISTICS_WRITING_APP                  : mkvmerge v34.0.0 ('Sight and Seen' 64-bit_STATISTICS_WRITING_DATE_UTC             : 2019-08-19 17:07:53_STATISTICS_TAGS                         : BPS DURATION NUMBER_OF_FRAMES NUMBER_OF_BYTESAudio #1ID                                       : 2Format                                   : AC-3Format/Info                              : Audio Coding 3Mode extension                           : CM (complete main)Codec ID                                 : A_AC3Duration                                 : 1h 29mnBit rate mode                            : ConstantBit rate                                 : 448 KbpsChannel(s)                               : 6 channelsChannel positions                        : Front: L C R, Side: L R, LFESampling rate                            : 48.0 KHzBit depth                                : 16 bitsCompression mode                         : LossyDelay relative to video                  : -42msStream size                              : 287 MiB (16%)Title                                    : Ita Ac3 5.1Language                                 : ItalianDefault                                  : YesForced                                   : NoAudio #2ID                                       : 3Format                                   : AC-3Format/Info                              : Audio Coding 3Mode extension                           : CM (complete main)Codec ID                                 : A_AC3Duration                                 : 1h 29mnBit rate mode                            : ConstantBit rate                                 : 384 KbpsChannel(s)                               : 6 channelsChannel positions                        : Front: L C R, Side: L R, LFESampling rate                            : 48.0 KHzBit depth                                : 16 bitsCompression mode                         : LossyDelay relative to video                  : -5msStream size                              : 246 MiB (14%)Title                                    : Eng  Ac3 5.1Language                                 : EnglishDefault                                  : NoForced                                   : NoDURATION                                 : 01:29:28.512000000NUMBER_OF_FRAMES                         : 251649NUMBER_OF_BYTES                          : 150318337_STATISTICS_WRITING_APP                  : mkvmerge v34.0.0 ('Sight and Seen' 64-bit_STATISTICS_WRITING_DATE_UTC             : 2019-08-19 17:07:53_STATISTICS_TAGS                         : BPS DURATION NUMBER_OF_FRAMES NUMBER_OF_BYTESMenu00:00:00.000                             : :Chapter 100:11:50.292                             : :Chapter 200:22:44.375                             : :Chapter 300:31:55.833                             : :Chapter 400:42:47.375                             : :Chapter 500:53:22.583                             : :Chapter 601:01:47.250                             : :Chapter 701:09:53.625                             : :Chapter 8

Dimensione: 1.70 GB

Categoria: BDRip

ISCRIVETEVI AL FORUM

Presto ci saranno molte novità, registratevi gratuitamente al forum

Ricordiamo a tutti che su Cultura Digitale non sono presenti nessun file, questo torrent è di proprietà del Corsaro nero. pubblicato sul loro sito al seguente indirizzo: A Beautiful Day (2017).720p.H264.ita.eng.Ac3-5.1.sub.ita.eng-MIRCrew -

COLLEGAMENTO AL TORRENT

Importante: è un link con magnet, si dovrebbe aprire da solo. Se vi esce errore 404 nel vostro computer non è installato un programma per torrent o l’estensione che fa aprire i file magnet.

 Copiate questo link
magnet:?xt=urn:btih:c331204de08f7c12f8da039e621b5fac5b1d7329&dn=A+Beautiful+Day+%282017%29.720p.H264.ita.eng.Ac3-5.1.sub.ita.eng-MIRCrew&tr=udp%3A%2F%2Ftracker.torrent.eu.org%3A451%2Fannounce

Per firefox usare questa estensione – Per Chrome usare questa estensione
Oppure usare Torxh web browser

Se i link risultassero non raggiungibili o bloccati a livello DNS

Seguite la guida Su Questo Articolo : GUIDA COME CAMBIARE DNS