Accordi e disaccordi (1999) SD.Xvid.Ita.ac3.Eng.mp3 – Torrent download

I Testi di tutte le canzoni del Festival di Sanremo 2020
TUTTE LE CANZONI DI SANREMO 2020

Ecco a voi il torrent Accordi e disaccordi (1999) SD.Xvid.Ita.ac3.Eng.mp3 - proveniente dagli archivi di Torrent

Lo staff di Cultura digitale al fine di promuovere la cultura condivide i contenuti presenti sul sito il corsaro nero.

Nome del Torrent: Accordi e disaccordi (1999) SD.Xvid.Ita.ac3.Eng.mp3 -

Descrizione del torrent: Accordi e disaccordi (Sweet and Lowdown) è un film diretto da Woody Allen, con Sean Penn, Samantha Morton e Uma Thurman. La pellicola rientra nel genere del falso documentario, cioè un documentario imperniato su personaggi fittizi (sul modello di Nanuk l';eschimese e il precedente Zelig sempre di Allen): in questo caso il personaggio inventato è Emmet Ray, la cui figura e vita sono ispirate a quelle di Django Reinhardt.Titolo originale Sweet and LowdownPaese di produzione Stati Uniti d';AmericaAnno 1999Durata 95 minGenere commedia, drammaticoRegia Woody AllenSoggetto Woody AllenSceneggiatura Woody AllenProduttore Jean DoumanianCasa di produzione Sweetland FilmsFotografia Fei ZhaoMontaggio Alisa LepselterMusiche Dick HymanScenografia Santo LoquastoCostumi Laura Cunningham [mediahttps://www.youtube.com/watch?v=0NOMbxIIsU0[/media Come nella ricostruzione fatta da una cattiva televisione si ripercorrono le avventure di un selvaggio, eccentrico genio della chitarra jazz della fine degli anni ';30, Emmet Ray, infantile ed egocentrico, sempre pronto a sbagliare, a lasciare la donna giusta per sposare quella sbagliata, a sprecare la sua arte, deciso a bruciare la sua vita. Emmet Ray è una figura immaginaria, mentre nel film viene più volte citato Django Reinhardt di cui si sente anche un';incisione famosa. TRAMA LUNGAAlcuni intervistati (c';è lo stesso Woody Allen, e poi, tra gli altri, un critico e uno storico di musica jazz) cercano, ciascuno attraverso fonti diverse, di ricostruire la vita di Emmet Ray, chitarrista jazz degli anni ';30. Di costui si sa che conduceva un';esistenza disordinata ma che veniva considerato il secondo miglior chitarrista del mondo, dopo Django Reinhardt. Per arrotondare i magri cachet professionali, Emmet faceva il protettore di alcune prostitute e, all';occorrenza, alleggeriva somme qua e là. Di carattere imprevedibile, diceva di sentirsi bene solo quando suonava e, al di fuori, girava con la pistola, sparava ai topi nelle discariche e andava a veder passare i treni. Tipo estroso e scontroso, Emmet un giorno incontra Hattie, ragazza muta che lavora in una lavanderia che subito gli si affeziona, attratta dalla sua fantasiosa personalità. In seguito Emmet va con altre donne, ma Hattie rimane con lui e lo segue fino ad Hollywood, dove lei ottiene una piccola parte in un film d';avventura. Ingelositosi, Emmet la ingelosisce avviando una relazione con Blanche, una perfida snob che lo sposa, ma ben presto lo lascia. Emmett torna allora da Hattie, che nel frattempo ha ripreso il lavoro nella lavanderia, si è sposata ed ha un bambino. Confuso e indeciso, Emmett prende una ragazza in un locale e si getta in macchina nella notte. La ragazza si ribella, lui scende, prende la chitarra, la rompe in mille pezzi. E qui finiscono le notizie su Emmett Ray.    Sean Penn: Emmet Ray    Samantha Morton: Hattie    Anthony LaPaglia: Al Torrio    Uma Thurman: Blanche    John Waters: Mr. Haynes    Gretchen Mol: Ellie    Denis O';Hare: Jake    Molly Price: Ann    Tony Darrow: Ben    Brad Garrett: Joe Bedloe    Woody Allen: se stesso    Douglas McGrath: se stesso[spoiler [/spoiler [spoilerComplete name                            : Accordi e disaccordi (1999) SD.Xvid.Ita.ac3.Eng.mp3.aviFormat                                   : AVIFormat/Info                              : Audio Video InterleaveFile size                                : 1.40 GiBDuration                                 : 1 h 31 minOverall bit rate                         : 2 194 kb/sWriting application                      : transcode-1.1.7VideoID                                       : 0Format                                   : MPEG-4 VisualFormat profile                           : Advanced [email protected] settings                          : BVOP2Format settings, BVOP                    : 2Format settings, QPel                    : NoFormat settings, GMC                     : No warppointsFormat settings, Matrix                  : Default (H.263)Muxing mode                              : Packed bitstreamCodec ID                                 : XVIDCodec ID/Hint                            : XviDDuration                                 : 1 h 31 minBit rate                                 : 1 795 kb/sWidth                                    : 1 008 pixelsHeight                                   : 544 pixelsDisplay aspect ratio                     : 1.85:1Frame rate                               : 25.000 FPSColor space                              : YUVChroma subsampling                       : 4:2:0Bit depth                                : 8 bitsScan type                                : ProgressiveCompression mode                         : LossyBits/(Pixel*Frame)                       : 0.131Stream size                              : 1.15 GiB (82%)Writing library                          : XviD 69Audio #1ID                                       : 1Format                                   : AC-3Format/Info                              : Audio Coding 3Commercial name                          : Dolby DigitalCodec ID                                 : 2000Duration                                 : 1 h 31 minBit rate mode                            : ConstantBit rate                                 : 256 kb/sChannel(s)                               : 2 channelsChannel layout                           : L RSampling rate                            : 48.0 kHzFrame rate                               : 31.250 FPS (1536 SPF)Bit depth                                : 16 bitsCompression mode                         : LossyStream size                              : 167 MiB (12%)Alignment                                : Aligned on interleavesInterleave, duration                     : 40  ms (1.00 video frame)Service kind                             : Complete MainAudio #2ID                                       : 2Format                                   : MPEG AudioFormat version                           : Version 1Format profile                           : Layer 3Format settings                          : Joint stereo / MS StereoCodec ID                                 : 55Codec ID/Hint                            : MP3Duration                                 : 1 h 31 minBit rate mode                            : ConstantBit rate                                 : 128 kb/sChannel(s)                               : 2 channelsSampling rate                            : 48.0 kHzCompression mode                         : LossyStream size                              : 83.6 MiB (6%)Alignment                                : Split accross interleavesInterleave, duration                     : 40  ms (1.00 video frame)Writing library                          : LAME3.100ª?4â$[/spoiler

Dimensione: 1.40 GB

Categoria: BDRip

ISCRIVETEVI AL FORUM

Presto ci saranno molte novità, registratevi gratuitamente al forum

Ricordiamo a tutti che su Cultura Digitale non sono presenti nessun file, questo torrent è di proprietà del Corsaro nero. pubblicato sul loro sito al seguente indirizzo: Accordi e disaccordi (1999) SD.Xvid.Ita.ac3.Eng.mp3 -

COLLEGAMENTO AL TORRENT

Importante: è un link con magnet, si dovrebbe aprire da solo. Se vi esce errore 404 nel vostro computer non è installato un programma per torrent o l’estensione che fa aprire i file magnet.

 Copiate questo link
magnet:?xt=urn:btih:2df3b5eeae03b0eca268767aadde6f6f4d71d64c&dn=Accordi+e+disaccordi+%281999%29+SD.Xvid.Ita.ac3.Eng.mp3&tr=udp%3A%2F%2Ftracker.coppersurfer.tk%3A6969%2Fannounce

Per firefox usare questa estensione – Per Chrome usare questa estensione
Oppure usare Torxh web browser

Se i link risultassero non raggiungibili o bloccati a livello DNS

Seguite la guida Su Questo Articolo : GUIDA COME CAMBIARE DNS 

I Testi di tutte le canzoni del Festival di Sanremo 2020
TUTTE LE CANZONI DI SANREMO 2020