After.Life.S02E01-06.WEBRip.ITA.ENG.DDP5.1.x264-BlackBit – Torrent download

Ecco a voi il torrent After.Life.S02E01-06.WEBRip.ITA.ENG.DDP5.1.x264-BlackBit - proveniente dagli archivi di Torrent

Lo staff di Cultura digitale al fine di promuovere la cultura condivide i contenuti presenti sul sito il corsaro nero.

Nome del Torrent: After.Life.S02E01-06.WEBRip.ITA.ENG.DDP5.1.x264-BlackBit -

Descrizione del torrent: Clicca qua per ingrandire questa immagine[size=36pt]After Life - Stagione 2[/size]Clicca qua per ingrandire questa immagineTitolo originale After LifePaese Regno UnitoAnno 2019 – in produzioneFormato serie TVGenere commedia neraStagioni 2Episodi 12Durata 25-31 min (episodio)Lingua originale ingleseClicca qua per ingrandire questa immagineLa serie segue Tony, che dopo la morte della moglie, causata da un cancro, cade in depressione. Per far fronte a tutti i suoi pensieri suicidi decide di cambiare completamente atteggiamento, iniziando a fare e dire tutto ciò che vuole senza alcuna inibizione. Anche se per lui questo atteggiamento è una sorta di superpotere, la situazione diventa complicata, perché tutti intorno a lui provano a renderlo nuovamente una persona migliore.Clicca qua per ingrandire questa immagine[spoiler]Clicca qua per ingrandire questa immagine[/spoiler]Clicca qua per ingrandire questa immagine[spoiler]GeneralUnique ID : 151644860137694446324209325001037561369 (0x7215BCDA3ED04D006AB2E9660CC3BE19)Complete name : C:UsersAdministratorVideosAfter Life S02SDAfter.Life.S02E01.Episodio.Uno.WEBRip.ITA.ENG.DDP5.1.x264-BlackBit.mkvFormat : MatroskaFormat version : Version 4File size : 454 MiBDuration : 27 min 22 sOverall bit rate : 2 318 kb/sEncoded date : UTC 2020-05-28 08:28:32Writing application : mkvmerge v46.0.0 ('No Deeper Escape' 64-bitWriting library : libebml v1.3.10 + libmatroska v1.5.2VideoID : 1Format : AVCFormat/Info : Advanced Video CodecFormat profile : [email protected] settings : CABAC / 5 Ref FramesFormat settings, CABAC : YesFormat settings, Reference : 5 framesCodec ID : V_MPEG4/ISO/AVCDuration : 27 min 10 sBit rate : 1 100 kb/sWidth : 720 pixelsHeight : 400 pixelsDisplay aspect ratio : 16:9Frame rate mode : ConstantFrame rate : 25.000 FPSColor space : YUVChroma subsampling : 4:2:0Bit depth : 8 bitsScan type : ProgressiveBits/(Pixel*Frame) : 0.153Stream size : 204 MiB (45%)Writing library : x264 core 148 r2795M aaa9aa8Encoding settings : cabac=1 / ref=5 / deblock=1:-1:-1 / analyse=0x3:0x113 / me=umh / subme=9 / psy=1 / psy_rd=1.00:0.15 / mixed_ref=1 / me_range=16 / chroma_me=1 / trellis=2 / 8x8dct=1 / cqm=0 / deadzone=21,11 / fast_pskip=1 / chroma_qp_offset=-3 / threads=24 / lookahead_threads=2 / sliced_threads=0 / nr=0 / decimate=1 / interlaced=0 / bluray_compat=0 / constrained_intra=0 / bframes=3 / b_pyramid=2 / b_adapt=2 / b_bias=0 / direct=3 / weightb=1 / open_gop=0 / weightp=2 / keyint=250 / keyint_min=25 / scenecut=40 / intra_refresh=0 / rc_lookahead=50 / rc=abr / mbtree=1 / bitrate=1100 / ratetol=1.0 / qcomp=0.60 / qpmin=0 / qpmax=69 / qpstep=4 / ip_ratio=1.40 / aq=1:1.00Default : YesForced : YesAudio #1ID : 2Format : E-AC-3Format/Info : Enhanced AC-3Commercial name : Dolby Digital PlusCodec ID : A_EAC3Duration : 27 min 22 sBit rate mode : ConstantBit rate : 640 kb/sChannel(s) : 6 channelsChannel layout : L R C LFE Ls RsSampling rate : 48.0 kHzFrame rate : 31.250 FPS (1536 SPF)Compression mode : LossyStream size : 125 MiB (28%)Language : ItalianService kind : Complete MainDefault : YesForced : YesAudio #2ID : 3Format : E-AC-3Format/Info : Enhanced AC-3Commercial name : Dolby Digital PlusCodec ID : A_EAC3Duration : 27 min 10 sBit rate mode : ConstantBit rate : 640 kb/sChannel(s) : 6 channelsChannel layout : L R C LFE Ls RsSampling rate : 48.0 kHzFrame rate : 31.250 FPS (1536 SPF)Compression mode : LossyStream size : 124 MiB (27%)Title : EnglishLanguage : EnglishService kind : Complete MainDefault : NoForced : NoText #1ID : 4Format : UTF-8Codec ID : S_TEXT/UTF8Codec ID/Info : UTF-8 Plain TextDuration : 10 min 49 sBit rate : 1 b/sCount of elements : 3Stream size : 120 Bytes (0%)Language : ItalianDefault : YesForced : YesText #2ID : 5Format : UTF-8Codec ID : S_TEXT/UTF8Codec ID/Info : UTF-8 Plain TextDuration : 25 min 16 sBit rate : 60 b/sCount of elements : 414Stream size : 11.1 KiB (0%)Title : ItalianLanguage : ItalianDefault : NoForced : NoText #3ID : 6Format : UTF-8Codec ID : S_TEXT/UTF8Codec ID/Info : UTF-8 Plain TextDuration : 25 min 18 sBit rate : 89 b/sCount of elements : 508Stream size : 16.6 KiB (0%)Title : EnglishLanguage : EnglishDefault : NoForced : No[/spoiler]

Dimensione: 2.78 GB

Categoria: SerieTv

ISCRIVETEVI AL FORUM

Presto ci saranno molte novità, registratevi gratuitamente al forum

Ricordiamo a tutti che su Cultura Digitale non sono presenti nessun file, questo torrent è di proprietà del Corsaro nero. pubblicato sul loro sito al seguente indirizzo: After.Life.S02E01-06.WEBRip.ITA.ENG.DDP5.1.x264-BlackBit -

COLLEGAMENTO AL TORRENT

Importante: è un link con magnet, si dovrebbe aprire da solo. Se vi esce errore 404 nel vostro computer non è installato un programma per torrent o l’estensione che fa aprire i file magnet.

 Copiate questo link
magnet:?xt=urn:btih:e7f8ff9c293bdd28a2e6b7094aff610301b6d804&dn=After.Life.S02E01-06.WEBRip.ITA.ENG.DDP5.1.x264-BlackBit&tr=udp%3A%2F%2Ftracker.coppersurfer.tk%3A6969%2Fannounce

Per firefox usare questa estensione – Per Chrome usare questa estensione
Oppure usare Torxh web browser

Se i link risultassero non raggiungibili o bloccati a livello DNS

Seguite la guida Su Questo Articolo : GUIDA COME CAMBIARE DNS