American factory (Best Documentary Oscar 2020) [720p H264 Eng Aac Multisubs] – Torrent download

I Testi di tutte le canzoni del Festival di Sanremo 2020
TUTTE LE CANZONI DI SANREMO 2020

Ecco a voi il torrent American factory (Best Documentary Oscar 2020) [720p H264 Eng Aac Multisubs] - proveniente dagli archivi di Torrent

Lo staff di Cultura digitale al fine di promuovere la cultura condivide i contenuti presenti sul sito il corsaro nero.

Nome del Torrent: American factory (Best Documentary Oscar 2020) [720p H264 Eng Aac Multisubs] -

Descrizione del torrent: GeneraleUnique ID                                : 162323809280648902959364324184883509396 (0x7A1E6DB20C83FF856F4C6438766CB894)Format                                   : MatroskaFormat version                           : Version 4File size                                : 797MiBDuration                                 : 1 o 50 minOverall bit rate                         : 1.012 kb/sEncoded date                             : UTC 2020-02-11 08:34:41Writing application                      : mkvmerge v41.0.0 ('Smarra' 64-bitWriting library                          : libebml v1.3.9 + libmatroska v1.5.2 / Lavf57.56.101Comment                                  : GalaxyRG - American.Factory.2019.720p.WEBRip.800MB.x264-GalaxyRGVideoID                                       : 1Format                                   : AVCFormat/Info                              : Advanced Video CodecFormat profile                           : [email protected] settings                          : CABAC / 4 Ref FramesFormat settings, CABAC                   : SiFormat settings, ReFrames                : 4 frameCodec ID                                 : V_MPEG4/ISO/AVCDuration                                 : 1 o 50 minBit rate                                 : 913 kb/sWidth                                    : 1.280 pixelHeight                                   : 720 pixelDisplay aspect ratio                     : 16:9Frame rate mode                          : VariabileFrame rate                               : 23,976 FPSColor space                              : YUVChroma subsampling                       : 4:2:0Bit depth                                : 8 bitScan type                                : ProgressivoBits/(Pixel*Frame)                       : 0.041Stream size                              : 718MiB (90%)Writing library                          : x264 core 148 r2748 97eaef2Encoding settings                        : cabac=1 / ref=2 / deblock=1:0:0 / analyse=0x3:0x113 / me=hex / subme=4 / psy=1 / psy_rd=1.00:0.00 / mixed_ref=0 / me_range=16 / chroma_me=1 / trellis=1 / 8x8dct=1 / cqm=0 / deadzone=21,11 / fast_pskip=1 / chroma_qp_offset=0 / threads=6 / lookahead_threads=1 / sliced_threads=0 / nr=0 / decimate=1 / interlaced=0 / bluray_compat=0 / constrained_intra=0 / bframes=3 / b_pyramid=2 / b_adapt=1 / b_bias=0 / direct=1 / weightb=1 / open_gop=0 / weightp=1 / keyint=250 / keyint_min=23 / scenecut=40 / intra_refresh=0 / rc_lookahead=20 / rc=2pass / mbtree=1 / bitrate=913 / ratetol=1.0 / qcomp=0.60 / qpmin=0 / qpmax=69 / qpstep=4 / cplxblur=20.0 / qblur=0.5 / ip_ratio=1.40 / aq=1:1.00Default                                  : SiForced                                   : NoAudioID                                       : 2Format                                   : AAC LCFormat/Info                              : Advanced Audio Codec Low ComplexityCodec ID                                 : A_AAC-2Duration                                 : 1 o 50 minBit rate                                 : 96,0 kb/sChannel(s)                               : 2 canaliChannel layout                           : L RSampling rate                            : 48,0 kHzFrame rate                               : 46,875 FPS (1024 SPF)Compression mode                         : Con perditaStream size                              : 75,9MiB (10%)Writing library                          : Lavc57.64.101 aacLanguage                                 : IngleseDefault                                  : SiForced                                   : NoTesto #1ID                                       : 3Format                                   : UTF-8Codec ID                                 : S_TEXT/UTF8Codec ID/Info                            : UTF-8 Plain TextDuration                                 : 1 o 49 minBit rate                                 : 64 b/sCount of elements                        : 1370Stream size                              : 51,9 KiB (0%)Language                                 : FranceseDefault                                  : NoForced                                   : NoTesto #2ID                                       : 4Format                                   : UTF-8Codec ID                                 : S_TEXT/UTF8Codec ID/Info                            : UTF-8 Plain TextDuration                                 : 1 o 49 minBit rate                                 : 26 b/sCount of elements                        : 560Stream size                              : 20,8 KiB (0%)Title                                    : ForcedLanguage                                 : FranceseDefault                                  : NoForced                                   : NoTesto #3ID                                       : 5Format                                   : UTF-8Codec ID                                 : S_TEXT/UTF8Codec ID/Info                            : UTF-8 Plain TextDuration                                 : 1 o 49 minBit rate                                 : 53 b/sCount of elements                        : 1291Stream size                              : 42,8 KiB (0%)Language                                 : ItalianoDefault                                  : SiForced                                   : NoTesto #4ID                                       : 6Format                                   : UTF-8Codec ID                                 : S_TEXT/UTF8Codec ID/Info                            : UTF-8 Plain TextDuration                                 : 1 o 49 minBit rate                                 : 17 b/sCount of elements                        : 435Stream size                              : 13,9 KiB (0%)Title                                    : ForcedLanguage                                 : ItalianoDefault                                  : NoForced                                   : NoTesto #5ID                                       : 7Format                                   : UTF-8Codec ID                                 : S_TEXT/UTF8Codec ID/Info                            : UTF-8 Plain TextDuration                                 : 1 o 49 minBit rate                                 : 62 b/sCount of elements                        : 1219Stream size                              : 50,1 KiB (0%)Language                                 : TedescoDefault                                  : NoForced                                   : NoTesto #6ID                                       : 8Format                                   : UTF-8Codec ID                                 : S_TEXT/UTF8Codec ID/Info                            : UTF-8 Plain TextDuration                                 : 1 o 49 minBit rate                                 : 8 b/sCount of elements                        : 200Stream size                              : 6,85 KiB (0%)Title                                    : ForcedLanguage                                 : TedescoDefault                                  : NoForced                                   : NoTesto #7ID                                       : 9Format                                   : UTF-8Codec ID                                 : S_TEXT/UTF8Codec ID/Info                            : UTF-8 Plain TextDuration                                 : 1 o 44 minBit rate                                 : 74 b/sCount of elements                        : 1527Stream size                              : 57,0 KiB (0%)Language                                 : IngleseDefault                                  : NoForced                                   : NoTesto #8ID                                       : 10Format                                   : UTF-8Codec ID                                 : S_TEXT/UTF8Codec ID/Info                            : UTF-8 Plain TextDuration                                 : 1 o 39 minBit rate                                 : 24 b/sCount of elements                        : 526Stream size                              : 18,1 KiB (0%)Title                                    : ForcedLanguage                                 : IngleseDefault                                  : NoForced                                   : NoTesto #9ID                                       : 11Format                                   : UTF-8Codec ID                                 : S_TEXT/UTF8Codec ID/Info                            : UTF-8 Plain TextDuration                                 : 1 o 49 minBit rate                                 : 61 b/sCount of elements                        : 1336Stream size                              : 49,3 KiB (0%)Language                                 : SpagnoloDefault                                  : NoForced                                   : NoTesto #10ID                                       : 12Format                                   : UTF-8Codec ID                                 : S_TEXT/UTF8Codec ID/Info                            : UTF-8 Plain TextDuration                                 : 1 o 49 minBit rate                                 : 57 b/sCount of elements                        : 1357Stream size                              : 46,1 KiB (0%)Language                                 : SpagnoloDefault                                  : NoForced                                   : NoTesto #11ID                                       : 13Format                                   : UTF-8Codec ID                                 : S_TEXT/UTF8Codec ID/Info                            : UTF-8 Plain TextDuration                                 : 1 o 49 minBit rate                                 : 6 b/sCount of elements                        : 161Stream size                              : 5,10 KiB (0%)Title                                    : ForcedLanguage                                 : SpagnoloDefault                                  : NoForced                                   : NoTesto #12ID                                       : 14Format                                   : UTF-8Codec ID                                 : S_TEXT/UTF8Codec ID/Info                            : UTF-8 Plain TextDuration                                 : 1 o 49 minBit rate                                 : 18 b/sCount of elements                        : 421Stream size                              : 15,0 KiB (0%)Title                                    : ForcedLanguage                                 : SpagnoloDefault                                  : NoForced                                   : No

Dimensione: 796.82 MB

Categoria: Altro

ISCRIVETEVI AL FORUM

Presto ci saranno molte novità, registratevi gratuitamente al forum

Ricordiamo a tutti che su Cultura Digitale non sono presenti nessun file, questo torrent è di proprietà del Corsaro nero. pubblicato sul loro sito al seguente indirizzo: American factory (Best Documentary Oscar 2020) [720p H264 Eng Aac Multisubs] -

COLLEGAMENTO AL TORRENT

Importante: è un link con magnet, si dovrebbe aprire da solo. Se vi esce errore 404 nel vostro computer non è installato un programma per torrent o l’estensione che fa aprire i file magnet.

 Copiate questo link
magnet:?xt=urn:btih:36af2bd072a33163dbdbf11c0fae823e57baf7ff&dn=American+factory+%28Best+Documentary+Oscar+2020%29+%5B720p+-+H264+-+Eng+Aac+-+Multisubs%5D&tr=udp%3A%2F%2Ftracker.coppersurfer.tk%3A6969%2Fannounce

Per firefox usare questa estensione – Per Chrome usare questa estensione
Oppure usare Torxh web browser

Se i link risultassero non raggiungibili o bloccati a livello DNS

Seguite la guida Su Questo Articolo : GUIDA COME CAMBIARE DNS 

I Testi di tutte le canzoni del Festival di Sanremo 2020
TUTTE LE CANZONI DI SANREMO 2020