Angry Birds 2 Nemici amici per sempre (2019).720p.H264.ita.eng.Ac3-5.1.sub.ita.eng-MIRCrew – Torrent download

Ecco a voi il torrent Angry Birds 2 Nemici amici per sempre (2019).720p.H264.ita.eng.Ac3-5.1.sub.ita.eng-MIRCrew - proveniente dagli archivi di Torrent

Lo staff di Cultura digitale al fine di promuovere la cultura condivide i contenuti presenti sul sito il corsaro nero.

Nome del Torrent: Angry Birds 2 Nemici amici per sempre (2019).720p.H264.ita.eng.Ac3-5.1.sub.ita.eng-MIRCrew -

Descrizione del torrent: The Angry Birds Movie 2 - Angry Birds 2 - Nemici amici per sempre (2019).720p.H264.ita.eng.Ac3-5.1.sub.ita.eng-MIRCrewClicca qua per ingrandire questa immagineNO FOUND ONLY ORIGINAL RELEASEMy release is always in double track audio italian and Original audiofor select it use VLC or dvd player homenot use wmp Angry Birds 2 - Nemici amici per sempre - The Angry Birds Movie 2 (2019)Quality MIRCrew on HD 720p da 1,8 gbClicca qua per ingrandire questa immagine Clicca qua per ingrandire questa immagineTitolo originale The Angry Birds Movie 2Lingua originale inglesePaese di produzione Stati Uniti d'AmericaAnno 2019Genere animazione, commedia, azione, sentimentale, avventuraRegia Thurop Van Orman, John RiceSceneggiatura Peter AckermanClicca qua per ingrandire questa immagineGli uccelli e i maiali sono in costante guerra l'uno contro l'altro dopo che l'Isola dei Maiali, che è stata distrutta in una precedente battaglia con gli uccelli, è stata ricostruita. Alla fine, una gigantesca palla di ghiaccio da un'isola vicina chiamata l'Isola delle Aquile colpisce il mare vicino all'Isola dei Maiali...................Clicca qua per ingrandire questa immagineAfter saving Bird Island from an all-out green-pig invasion in Angry Birds - Il film (2016), the isle's always cranky local hero, Red, still finds himself doing battle with Pig Island. As the prank war between pigs and birds is raging, massive icy projectiles coming from the feathery tyrant Zeta's ice-capped Eagle Island threaten the security of both havens............... . Clicca qua per ingrandire questa immagine   Clicca qua per ingrandire questa immagineClicca qua per ingrandire questa immagine Clicca qua per ingrandire questa immagine Clicca qua per ingrandire questa immagine Clicca qua per ingrandire questa immagineClicca qua per ingrandire questa immagineGeneralComplete name                            : Angry Birds 2 - Nemici amici per sempre (2019).720p.h264.ita.eng.sub.ita.eng-MIRCrewAngry Birds 2 - Nemici amici per sempre (2019).720p.h264.ita.eng.sub.ita.eng-MIRCrew.mkvFormat                                   : MatroskaFormat version                           : Version 2File size                                : 1.89 GiBDuration                                 : 1h 37mnOverall bit rate                         : 2 780 KbpsMovie name                               : robbyrsEncoded date                             : UTC 2019-12-17 21:10:11Writing application                      : mkvmerge v5.8.0 ('No Sleep / Pillow' built on Sep  2 2012 15:37:04Writing library                          : Lavf54.63.100COMMENT                                  : robbyrsCOPYRIGHT                                : robbyrsVideoID                                       : 1Format                                   : AVCFormat/Info                              : Advanced Video CodecFormat profile                           : [email protected] settings, CABAC                   : YesFormat settings, ReFrames                : 2 framesCodec ID                                 : V_MPEG4/ISO/AVCDuration                                 : 1h 37mnBit rate                                 : 1 900 KbpsWidth                                    : 1 280 pixelsHeight                                   : 720 pixelsDisplay aspect ratio                     : 16:9Frame rate mode                          : VariableFrame rate                               : 23.976 fpsColor space                              : YUVChroma subsampling                       : 4:2:0Bit depth                                : 8 bitsScan type                                : ProgressiveBits/(Pixel*Frame)                       : 0.086Stream size                              : 1.24 GiB (66%)Title                                    : robbyrsWriting library                          : x264 core 130 r2273Encoding settings                        : cabac=1 / ref=2 / deblock=1:0:0 / analyse=0x1:0x131 / me=hex / subme=7 / psy=1 / psy_rd=1.00:0.00 / mixed_ref=0 / me_range=16 / chroma_me=1 / trellis=1 / 8x8dct=0 / cqm=0 / deadzone=21,11 / fast_pskip=1 / chroma_qp_offset=-2 / threads=9 / lookahead_threads=1 / sliced_threads=0 / nr=0 / decimate=1 / interlaced=0 / bluray_compat=0 / constrained_intra=0 / bframes=3 / b_pyramid=0 / b_adapt=1 / b_bias=0 / direct=3 / weightb=1 / open_gop=0 / weightp=2 / keyint=230 / keyint_min=23 / scenecut=40 / intra_refresh=0 / rc_lookahead=40 / rc=abr / mbtree=1 / bitrate=1900 / ratetol=1.0 / qcomp=0.60 / qpmin=10 / qpmax=69 / qpstep=4 / vbv_maxrate=24000 / vbv_bufsize=24000 / nal_hrd=none / ip_ratio=1.40 / aq=1:1.00Language                                 : ItalianDefault                                  : YesForced                                   : NoAudio #1ID                                       : 2Format                                   : AC-3Format/Info                              : Audio Coding 3Mode extension                           : CM (complete main)Codec ID                                 : A_AC3Duration                                 : 1h 37mnBit rate mode                            : ConstantBit rate                                 : 448 KbpsChannel(s)                               : 6 channelsChannel positions                        : Front: L C R, Side: L R, LFESampling rate                            : 48.0 KHzBit depth                                : 16 bitsCompression mode                         : LossyDelay relative to video                  : -5msStream size                              : 311 MiB (16%)Title                                    : Ita Ac3 5.1Language                                 : ItalianDefault                                  : YesForced                                   : YesAudio #2ID                                       : 3Format                                   : AC-3Format/Info                              : Audio Coding 3Mode extension                           : CM (complete main)Codec ID                                 : A_AC3Duration                                 : 1h 37mnBit rate mode                            : ConstantBit rate                                 : 448 KbpsChannel(s)                               : 6 channelsChannel positions                        : Front: L C R, Side: L R, LFESampling rate                            : 48.0 KHzBit depth                                : 16 bitsCompression mode                         : LossyDelay relative to video                  : -5msStream size                              : 311 MiB (16%)Title                                    : Eng Ac3 5.1Language                                 : EnglishDefault                                  : NoForced                                   : NoMenu00:00:00.000                             : :Chapter 100:05:19.486                             : :Chapter 200:12:05.892                             : :Chapter 300:18:52.673                             : :Chapter 400:24:11.867                             : :Chapter 500:28:46.683                             : :Chapter 600:34:48.461                             : :Chapter 700:40:10.158                             : :Chapter 800:47:10.828                             : :Chapter 900:52:56.382                             : :Chapter 1000:58:04.690                             : :Chapter 1101:04:36.122                             : :Chapter 1201:09:55.650                             : :Chapter 1301:15:40.286                             : :Chapter 1401:21:11.116                             : :Chapter 1501:26:26.848                             : :Chapter 16

Dimensione: 1.89 GB

Categoria: BDRip

ISCRIVETEVI AL FORUM

Presto ci saranno molte novità, registratevi gratuitamente al forum

Ricordiamo a tutti che su Cultura Digitale non sono presenti nessun file, questo torrent è di proprietà del Corsaro nero. pubblicato sul loro sito al seguente indirizzo: Angry Birds 2 Nemici amici per sempre (2019).720p.H264.ita.eng.Ac3-5.1.sub.ita.eng-MIRCrew -

COLLEGAMENTO AL TORRENT

Importante: è un link con magnet, si dovrebbe aprire da solo. Se vi esce errore 404 nel vostro computer non è installato un programma per torrent o l’estensione che fa aprire i file magnet.

 Copiate questo link
magnet:?xt=urn:btih:2bd43b5f7d8616d3f20260803528f5eaa9a6cf87&dn=Angry+Birds+2+-+Nemici+amici+per+sempre+%282019%29.720p.H264.ita.eng.Ac3-5.1.sub.ita.eng-MIRCrew&tr=udp%3A%2F%2Ftracker.coppersurfer.tk%3A6969%2Fannounce

Per firefox usare questa estensione – Per Chrome usare questa estensione
Oppure usare Torxh web browser

Se i link risultassero non raggiungibili o bloccati a livello DNS

Seguite la guida Su Questo Articolo : GUIDA COME CAMBIARE DNS