Arrow.S08E10.Fadeout.WEBMux.ITA.ENG.x264-BlackBit.mkv – Torrent download

Ecco a voi il torrent Arrow.S08E10.Fadeout.WEBMux.ITA.ENG.x264-BlackBit.mkv - proveniente dagli archivi di Torrent

Lo staff di Cultura digitale al fine di promuovere la cultura condivide i contenuti presenti sul sito il corsaro nero.

Nome del Torrent: Arrow.S08E10.Fadeout.WEBMux.ITA.ENG.x264-BlackBit.mkv -

Descrizione del torrent: Arrow - Stagione 8itolo originale ArrowPaese Stati Uniti d'AmericaAnno 2012-2020Formato serie TVGenere azione, avventura, drammaticoStagioni 8Episodi 170Durata 42 min (episodio)Lingua originale ingleseRapporto 16:9[imdbtt2193021[/imdbL'ottava ed ultima stagione della serie televisiva Arrow, composta da 10 episodi, è stata trasmessa in prima visione assoluta negli Stati Uniti d'America da The CW dal 15 ottobre 2019 al 28 gennaio 2020.L'antagonista pricinpale di questa stagione è L'anti-monitorLa stagione contiene un crossover, che corrisponderà con l'ottavo episodio Crisis On Infinite Earths, questo evento coinvolgerà tutte le serie dell'universo DC/CW, ovvero Arrow, The Flash, Supergirl, Legends of Tomorrow, Black Lightning e la new entry Batwoman.Mentre cerca di decifrare la missione di The Monitor (LaMonica Garrett), Oliver (Stephen Amell) ritorna a Starling City dove incontra volti familiari. Nel frattempo, Mia (Katherine McNamara) e la squadra di William (Ben Lewis) si scontrano con un nuovo nemico.[spoiler[/spoiler[spoilerGeneralUnique ID : 16671748680751358711803758522780276352 (0xC8ADCAC183A0A38B8FA7D55FCFED680)Complete name : C:UsersAdministratorVideosArrow S08Arrow.S08E01.Starling.City.WEBMux.ITA.ENG.x264-BlackBit.mkvFormat : MatroskaFormat version : Version 4File size : 471 MiBDuration : 42 min 25 sOverall bit rate : 1 552 kb/sEncoded date : UTC 2020-04-03 20:18:34Writing application : mkvmerge v44.0.0 ('Domino' 64-bitWriting library : libebml v1.3.10 + libmatroska v1.5.2VideoID : 1Format : AVCFormat/Info : Advanced Video CodecFormat profile : [email protected] settings : CABAC / 5 Ref FramesFormat settings, CABAC : YesFormat settings, Reference : 5 framesCodec ID : V_MPEG4/ISO/AVCDuration : 42 min 25 sBit rate : 1 100 kb/sWidth : 720 pixelsHeight : 400 pixelsDisplay aspect ratio : 16:9Frame rate mode : ConstantFrame rate : 23.976 (24000/1001) FPSColor space : YUVChroma subsampling : 4:2:0Bit depth : 8 bitsScan type : ProgressiveBits/(Pixel*Frame) : 0.159Stream size : 334 MiB (71%)Writing library : x264 core 152 r2851M ba24899Encoding settings : cabac=1 / ref=5 / deblock=1:-1:-1 / analyse=0x3:0x113 / me=umh / subme=9 / psy=1 / psy_rd=1.00:0.15 / mixed_ref=1 / me_range=16 / chroma_me=1 / trellis=2 / 8x8dct=1 / cqm=0 / deadzone=21,11 / fast_pskip=1 / chroma_qp_offset=-3 / threads=12 / lookahead_threads=1 / sliced_threads=0 / nr=0 / decimate=1 / interlaced=0 / bluray_compat=0 / constrained_intra=0 / bframes=3 / b_pyramid=2 / b_adapt=2 / b_bias=0 / direct=3 / weightb=1 / open_gop=0 / weightp=2 / keyint=250 / keyint_min=23 / scenecut=40 / intra_refresh=0 / rc_lookahead=50 / rc=abr / mbtree=1 / bitrate=1100 / ratetol=1.0 / qcomp=0.60 / qpmin=0 / qpmax=69 / qpstep=4 / ip_ratio=1.40 / aq=1:1.00Default : YesForced : YesAudio #1ID : 2Format : AC-3Format/Info : Audio Coding 3Commercial name : Dolby DigitalCodec ID : A_AC3Duration : 42 min 25 sBit rate mode : ConstantBit rate : 192 kb/sChannel(s) : 2 channelsChannel layout : L RSampling rate : 48.0 kHzFrame rate : 31.250 FPS (1536 SPF)Compression mode : LossyDelay relative to video : -43 msStream size : 58.3 MiB (12%)Language : ItalianService kind : Complete MainDefault : YesForced : YesAudio #2ID : 3Format : AAC LCFormat/Info : Advanced Audio Codec Low ComplexityCodec ID : A_AAC-2Duration : 42 min 25 sBit rate : 256 kb/sChannel(s) : 2 channelsChannel layout : L RSampling rate : 48.0 kHzFrame rate : 46.875 FPS (1024 SPF)Compression mode : LossyDelay relative to video : -43 msStream size : 77.7 MiB (16%)Language : EnglishDefault : NoForced : NoText #1ID : 4Format : UTF-8Codec ID : S_TEXT/UTF8Codec ID/Info : UTF-8 Plain TextDuration : 41 min 55 sBit rate : 68 b/sCount of elements : 638Stream size : 21.0 KiB (0%)Language : ItalianDefault : NoForced : NoText #2ID : 5Format : UTF-8Codec ID : S_TEXT/UTF8Codec ID/Info : UTF-8 Plain TextDuration : 42 min 18 sBit rate : 70 b/sCount of elements : 689Stream size : 22.0 KiB (0%)Title : SDHLanguage : EnglishDefault : NoForced : No[/spoiler

Dimensione: 478.79 MB

Categoria: SerieTv

ISCRIVETEVI AL FORUM

Presto ci saranno molte novità, registratevi gratuitamente al forum

Ricordiamo a tutti che su Cultura Digitale non sono presenti nessun file, questo torrent è di proprietà del Corsaro nero. pubblicato sul loro sito al seguente indirizzo: Arrow.S08E10.Fadeout.WEBMux.ITA.ENG.x264-BlackBit.mkv -

COLLEGAMENTO AL TORRENT

Importante: è un link con magnet, si dovrebbe aprire da solo. Se vi esce errore 404 nel vostro computer non è installato un programma per torrent o l’estensione che fa aprire i file magnet.

 Copiate questo link
magnet:?xt=urn:btih:c148303ce1cfb353b50ee75b7a00a077174c3cbf&dn=Arrow.S08E10.Fadeout.WEBMux.ITA.ENG.x264-BlackBit.mkv&tr=udp%3A%2F%2Ftracker.coppersurfer.tk%3A6969%2Fannounce

Per firefox usare questa estensione – Per Chrome usare questa estensione
Oppure usare Torxh web browser

Se i link risultassero non raggiungibili o bloccati a livello DNS

Seguite la guida Su Questo Articolo : GUIDA COME CAMBIARE DNS