Artemis.Fowl.2020.iTA-ENG.WebDL.2160p.x265-CYBER.mkv – Torrent download

Ecco a voi il torrent Artemis.Fowl.2020.iTA-ENG.WebDL.2160p.x265-CYBER.mkv - proveniente dagli archivi di Torrent

Lo staff di Cultura digitale al fine di promuovere la cultura condivide i contenuti presenti sul sito il corsaro nero.

Nome del Torrent: Artemis.Fowl.2020.iTA-ENG.WebDL.2160p.x265-CYBER.mkv -

Descrizione del torrent: Artemis Fowl[/sizeGenere: Azione, Avventura, FantasyAnno: 2020Regia: Kenneth BranaghAttori: Ferdia Shaw, Lara McDonnell, Judi Dench, Josh Gad, Nonso Anozie, Colin Farrell, Tamara Smart, Miranda Raison, Joshua McGuire, Adrian Scarborough, Hong Chau, Nikesh Patel, Jake Davies, Michael Abubakar, Rachel Denning, Matt Jessup, Simone Kirby, Sally MesshamPaese: USADurata: 115 minDistribuzione: Walt Disney ItaliaNote: Ispirato alla serie di libri fantasy dello scrittore irlandese Eoin Colfer.Il piccolo Artemis Fowl è il discendente di una lunga serie di menti criminali. Con l'aiuto del fedele protettore Butler, Artemis vive l'avventura della sua vita quando decide di ritrovare il padre misteriosamente scomparso. Così facendo, scopre un antico mondo nascosto, quello incredibilmente evoluto delle fate. Capendo che l'assenza del genitore è in qualche modo collegata al mondo magico segreto, Artemis dovrà superare in ingegno le onnipotenti fate.[spoiler[/spoiler[spoilerGeneralUnique ID : 192814638226583222245918372084097820219 (0x910EBFA0D20F8916EAA7DC97ACBD263B)Complete name : Artemis.Fowl.2020.iTA-ENG.WebDL.2160p.x265-CYBER.mkvFormat : MatroskaFormat version : Version 2File size : 12.0 GiBDuration : 1 h 34 minOverall bit rate : 18.2 Mb/sEncoded date : UTC 2020-06-12 23:18:22Writing application : mkvmerge v45.0.0 ('Heaven in Pennies' 64-bitWriting library : libebml v1.3.10 + libmatroska v1.5.2VideoID : 1Format : HEVCFormat/Info : High Efficiency Video CodingFormat profile : Main [email protected]@HighHDR format : SMPTE ST 2086, HDR10 compatibleCodec ID : V_MPEGH/ISO/HEVCDuration : 1 h 34 minBit rate : 16.4 Mb/sWidth : 3 840 pixelsHeight : 2 160 pixelsDisplay aspect ratio : 16:9Frame rate mode : ConstantFrame rate : 23.976 (24000/1001) FPSColor space : YUVChroma subsampling : 4:2:0Bit depth : 10 bitsBits/(Pixel*Frame) : 0.083Stream size : 10.8 GiB (90%)Title : WebDl UHDLanguage : EnglishDefault : YesForced : NoColor range : LimitedColor primaries : BT.2020Transfer characteristics : PQMatrix coefficients : BT.2020 non-constantMastering display color primaries : Display P3Mastering display luminance : min: 0.0000 cd/m2, max: 1000 cd/m2Audio #1ID : 2Format : E-AC-3Format/Info : Enhanced AC-3Commercial name : Dolby Digital PlusCodec ID : A_EAC3Duration : 1 h 34 minBit rate mode : ConstantBit rate : 640 kb/sChannel(s) : 6 channelsChannel layout : L R C LFE Ls RsSampling rate : 48.0 kHzFrame rate : 31.250 FPS (1536 SPF)Compression mode : LossyStream size : 432 MiB (4%)Title : E-AC3 ITALanguage : ItalianService kind : Complete MainDefault : YesForced : NoAudio #2ID : 3Format : AC-3Format/Info : Audio Coding 3Commercial name : Dolby DigitalCodec ID : A_AC3Duration : 1 h 34 minBit rate mode : ConstantBit rate : 640 kb/sChannel(s) : 6 channelsChannel layout : L R C LFE Ls RsSampling rate : 48.0 kHzFrame rate : 31.250 FPS (1536 SPF)Compression mode : LossyStream size : 432 MiB (4%)Title : AC3 ITALanguage : ItalianService kind : Complete MainDefault : NoForced : NoAudio #3ID : 4Format : E-AC-3Format/Info : Enhanced AC-3Commercial name : Dolby Digital PlusCodec ID : A_EAC3Duration : 1 h 34 minBit rate mode : ConstantBit rate : 256 kb/sChannel(s) : 6 channelsChannel layout : L R C LFE Ls RsSampling rate : 48.0 kHzFrame rate : 31.250 FPS (1536 SPF)Compression mode : LossyStream size : 173 MiB (1%)Title : E-AC3 ENGLanguage : EnglishService kind : Complete MainDefault : NoForced : NoAudio #4ID : 5Format : AC-3Format/Info : Audio Coding 3Commercial name : Dolby DigitalCodec ID : A_AC3Duration : 1 h 34 minBit rate mode : ConstantBit rate : 256 kb/sChannel(s) : 6 channelsChannel layout : L R C LFE Ls RsSampling rate : 48.0 kHzFrame rate : 31.250 FPS (1536 SPF)Compression mode : LossyStream size : 173 MiB (1%)Title : AC3 ENGLanguage : EnglishService kind : Complete MainDefault : NoForced : NoText #1ID : 6Format : UTF-8Codec ID : S_TEXT/UTF8Codec ID/Info : UTF-8 Plain TextDuration : 1 h 33 minBit rate : 0 b/sCount of elements : 16Stream size : 444 Bytes (0%)Title : SUB ITA ForcedLanguage : ItalianDefault : YesForced : NoText #2ID : 7Format : UTF-8Codec ID : S_TEXT/UTF8Codec ID/Info : UTF-8 Plain TextDuration : 1 h 33 minBit rate : 57 b/sCount of elements : 1360Stream size : 39.6 KiB (0%)Title : SUB ITALanguage : ItalianDefault : NoForced : NoText #3ID : 8Format : UTF-8Codec ID : S_TEXT/UTF8Codec ID/Info : UTF-8 Plain TextDuration : 1 h 27 minBit rate : 63 b/sCount of elements : 1515Stream size : 40.7 KiB (0%)Title : SUB ENGLanguage : EnglishDefault : NoForced : No[/spoiler

Dimensione: 12.02 GB

Categoria: BDRip

ISCRIVETEVI AL FORUM

Presto ci saranno molte novità, registratevi gratuitamente al forum

Ricordiamo a tutti che su Cultura Digitale non sono presenti nessun file, questo torrent è di proprietà del Corsaro nero. pubblicato sul loro sito al seguente indirizzo: Artemis.Fowl.2020.iTA-ENG.WebDL.2160p.x265-CYBER.mkv -

COLLEGAMENTO AL TORRENT

Importante: è un link con magnet, si dovrebbe aprire da solo. Se vi esce errore 404 nel vostro computer non è installato un programma per torrent o l’estensione che fa aprire i file magnet.

 Copiate questo link
magnet:?xt=urn:btih:3fa492bd59520ef66d837bdf857c96599babfa10&dn=Artemis.Fowl.2020.iTA-ENG.WebDL.2160p.x265-CYBER.mkv&tr=udp%3A%2F%2Ftracker.coppersurfer.tk%3A6969%2Fannounce

Per firefox usare questa estensione – Per Chrome usare questa estensione
Oppure usare Torxh web browser

Se i link risultassero non raggiungibili o bloccati a livello DNS

Seguite la guida Su Questo Articolo : GUIDA COME CAMBIARE DNS