Batwoman.S01E13.Drink.Me.1080p.WEBMux.ITA.ENG.x264-BlackBit.mkv – Torrent download

Ecco a voi il torrent Batwoman.S01E13.Drink.Me.1080p.WEBMux.ITA.ENG.x264-BlackBit.mkv - proveniente dagli archivi di Torrent

Lo staff di Cultura digitale al fine di promuovere la cultura condivide i contenuti presenti sul sito il corsaro nero.

Nome del Torrent: Batwoman.S01E13.Drink.Me.1080p.WEBMux.ITA.ENG.x264-BlackBit.mkv -

Descrizione del torrent: Batwoman - Stagione 1itolo originale BatwomanPaese Stati Uniti d'AmericaAnno 2019 – in produzioneFormato serie TVGenere supereroi, azione, avventura, gialloStagioni 1Episodi 22Durata 42 min (episodio)Lingua originale ingleseRapporto 16:9Tre anni dopo la scomparsa del filantropo miliardario Bruce Wayne e del suo alter ego Batman[2, sua cugina Kate Kane si propone,di sconfiggere i propi demoni interiori, affinché possa proteggere le strade di Gotham City come Batwoman e diventare un simbolo di speranza.[spoiler[/spoiler[spoilerGeneralUnique ID : 212905523974929311377762111562465871155 (0xA02C1CC5E92158EAD64CE99B47A30533)Complete name : C:UsersAdministratorVideosBatwoman S01Batwoman.S01E01.Pilot.1080p.WEBMux.ITA.ENG.x264-BlackBit.mkvFormat : MatroskaFormat version : Version 4File size : 2.69 GiBDuration : 42 min 25 sOverall bit rate : 9 077 kb/sEncoded date : UTC 2020-03-17 12:42:51Writing application : mkvmerge v44.0.0 ('Domino' 64-bitWriting library : libebml v1.3.10 + libmatroska v1.5.2VideoID : 1Format : AVCFormat/Info : Advanced Video CodecFormat profile : [email protected] settings : CABAC / 4 Ref FramesFormat settings, CABAC : YesFormat settings, Reference : 4 framesCodec ID : V_MPEG4/ISO/AVCDuration : 42 min 25 sBit rate mode : ConstantBit rate : 8 243 kb/sNominal bit rate : 10 000 kb/sWidth : 1 920 pixelsHeight : 960 pixelsDisplay aspect ratio : 2.000Frame rate mode : ConstantFrame rate : 23.976 (24000/1001) FPSColor space : YUVChroma subsampling : 4:2:0Bit depth : 8 bitsScan type : ProgressiveBits/(Pixel*Frame) : 0.187Stream size : 2.44 GiB (91%)Default : YesForced : YesColor range : LimitedColor primaries : BT.709Transfer characteristics : BT.709Matrix coefficients : BT.709Audio #1ID : 2Format : AC-3Format/Info : Audio Coding 3Commercial name : Dolby DigitalCodec ID : A_AC3Duration : 42 min 25 sBit rate mode : ConstantBit rate : 192 kb/sChannel(s) : 2 channelsChannel layout : L RSampling rate : 48.0 kHzFrame rate : 31.250 FPS (1536 SPF)Compression mode : LossyStream size : 58.3 MiB (2%)Language : ItalianService kind : Complete MainDefault : YesForced : YesAudio #2ID : 3Format : E-AC-3Format/Info : Enhanced AC-3Commercial name : Dolby Digital PlusCodec ID : A_EAC3Duration : 42 min 25 sBit rate mode : ConstantBit rate : 640 kb/sChannel(s) : 6 channelsChannel layout : L R C LFE Ls RsSampling rate : 48.0 kHzFrame rate : 31.250 FPS (1536 SPF)Compression mode : LossyStream size : 194 MiB (7%)Language : EnglishService kind : Complete MainDefault : NoForced : NoText #1ID : 4Format : UTF-8Codec ID : S_TEXT/UTF8Codec ID/Info : UTF-8 Plain TextDuration : 41 min 51 sBit rate : 65 b/sCount of elements : 602Stream size : 20.1 KiB (0%)Language : ItalianDefault : NoForced : NoText #2ID : 5Format : UTF-8Codec ID : S_TEXT/UTF8Codec ID/Info : UTF-8 Plain TextDuration : 42 min 8 sBit rate : 63 b/sCount of elements : 699Stream size : 19.6 KiB (0%)Title : SDHLanguage : EnglishDefault : NoForced : No[/spoiler

Dimensione: 2.17 GB

Categoria: SerieTv

ISCRIVETEVI AL FORUM

Presto ci saranno molte novità, registratevi gratuitamente al forum

Ricordiamo a tutti che su Cultura Digitale non sono presenti nessun file, questo torrent è di proprietà del Corsaro nero. pubblicato sul loro sito al seguente indirizzo: Batwoman.S01E13.Drink.Me.1080p.WEBMux.ITA.ENG.x264-BlackBit.mkv -

COLLEGAMENTO AL TORRENT

Importante: è un link con magnet, si dovrebbe aprire da solo. Se vi esce errore 404 nel vostro computer non è installato un programma per torrent o l’estensione che fa aprire i file magnet.

 Copiate questo link
magnet:?xt=urn:btih:074d3bad9122742194889a9d768a208e06bebb3c&dn=Batwoman.S01E13.Drink.Me.1080p.WEBMux.ITA.ENG.x264-BlackBit.mkv&tr=udp%3A%2F%2Ftracker.coppersurfer.tk%3A6969%2Fannounce

Per firefox usare questa estensione – Per Chrome usare questa estensione
Oppure usare Torxh web browser

Se i link risultassero non raggiungibili o bloccati a livello DNS

Seguite la guida Su Questo Articolo : GUIDA COME CAMBIARE DNS