– Beloved (1998).720p.H264.ita.eng.Ac3.sub.fre.prt.eng-MIRCrew Mux by robbyrs – Torrent

Ecco a voi il torrent - Beloved (1998).720p.H264.ita.eng.Ac3.sub.fre.prt.eng-MIRCrew Mux by robbyrs - proveniente dagli archivi di Torrent

Lo staff di Cultura digitale al fine di promuovere la cultura condivide i contenuti presenti sul sito il corsaro nero.

Nome del Torrent: - Beloved (1998).720p.H264.ita.eng.Ac3.sub.fre.prt.eng-MIRCrew Mux by robbyrs -

Descrizione del torrent: Beloved 1998.720p.H264.ita.eng.Ac3.sub.fre.prt.eng-MIRCrew Mux by robbyrsClicca qua per ingrandire questa immagineNO FOUND ONLY ORIGINAL RELEASEMy release is always in double track audio italian and Original audiofor select it use VLC or dvd player homenot use wmp Beloved 1998Quality MIRCrew on HD 720p da 3,1 gbClicca qua per ingrandire questa immagine Clicca qua per ingrandire questa immaginePremi e nominationPremi Oscar 1999: Nomination Migliori costumi a Colleen AtwoodChicago Film Critics Association Awards 1999: Miglior promessa femminile a Kimberly Elise Nomination Miglior attrice non protagonista a Chicago a Kimberly Elise Nomination Miglior fotografia a Tak FujimotoImage Awards 1999: Miglior attore protagonista in un film a Danny Glover Nomination Miglior attrice protagonista in un film a Oprah WinfreyTitolo originale BelovedPaese di produzione Stati Uniti d'AmericaAnno 1998Durata 172 minGenere drammaticoRegia Jonathan DemmeSoggetto Toni MorrisonSceneggiatura Akosua Busia, Richard LaGravenese e Adam BrooksFotografia Tak FujimotoMontaggio Andy Keir e Carol LittletonMusiche Rachel PortmanScenografia Kristi ZeaClicca qua per ingrandire questa immagine Oprah Winfrey: Sethe Danny Glover: Paul D Garner Thandie Newton: Beloved Kimberly Elise: Denver Lisa Gay Hamilton: Sethe da giovane Beah Richards: Baby Suggs Jason Robards: Mr. BodwinClicca qua per ingrandire questa immagineOhio, seconda metà dell'800. La vita di un'ex schiava (Sethe) è apparentemente normale, ma in realtà nasconde dolorosi e incoffessabili segreti. Ella vive con la figlia Denver e a loro si uniranno dapprima Paul D e successivamente BelovedClicca qua per ingrandire questa immagineAfter Paul D. finds his old slave friend Sethe in Ohio and moves in with her and her daughter Denver, a strange girl comes along by the name of "Beloved". Sethe and Denver take her in and then strange things start to happen...Clicca qua per ingrandire questa immagine Clicca qua per ingrandire questa immagine Clicca qua per ingrandire questa immagine Clicca qua per ingrandire questa immagine Clicca qua per ingrandire questa immagine Clicca qua per ingrandire questa immagineClicca qua per ingrandire questa immagineGeneralComplete name : Beloved (199.720p.ita.eng.sub.eng.por.fre-MIRCrewBeloved (199.720p.ita.eng.sub.eng.por.fre-MIRCrew.mkvFormat : MatroskaFormat version : Version 2File size : 3.11 GiBDuration : 2h 51mnOverall bit rate : 2 595 KbpsMovie name : MIRCrewEncoded date : UTC 2019-10-16 06:56:54Writing application : mkvmerge v5.8.0 ('No Sleep / Pillow' built on Sep 2 2012 15:37:04Writing library : Lavf54.63.100COMMENT : mircrew-releasesVideoID : 1Format : AVCFormat/Info : Advanced Video CodecFormat profile : [email protected] settings, CABAC : YesFormat settings, ReFrames : 2 framesCodec ID : V_MPEG4/ISO/AVCDuration : 2h 51mnBit rate : 1 903 KbpsNominal bit rate : 2 000 KbpsWidth : 1 280 pixelsHeight : 720 pixelsDisplay aspect ratio : 16:9Frame rate mode : VariableFrame rate : 23.976 fpsColor space : YUVChroma subsampling : 4:2:0Bit depth : 8 bitsScan type : ProgressiveBits/(Pixel*Frame) : 0.086Stream size : 2.28 GiB (73%)Title : MIRCrewWriting library : x264 core 130 r2273Encoding settings : cabac=1 / ref=2 / deblock=1:0:0 / analyse=0x1:0x131 / me=hex / subme=7 / psy=1 / psy_rd=1.00:0.00 / mixed_ref=0 / me_range=16 / chroma_me=1 / trellis=1 / 8x8dct=0 / cqm=0 / deadzone=21,11 / fast_pskip=1 / chroma_qp_offset=-2 / threads=9 / lookahead_threads=1 / sliced_threads=0 / nr=0 / decimate=1 / interlaced=0 / bluray_compat=0 / constrained_intra=0 / bframes=3 / b_pyramid=0 / b_adapt=1 / b_bias=0 / direct=3 / weightb=1 / open_gop=0 / weightp=2 / keyint=230 / keyint_min=23 / scenecut=40 / intra_refresh=0 / rc_lookahead=40 / rc=abr / mbtree=1 / bitrate=2000 / ratetol=1.0 / qcomp=0.60 / qpmin=10 / qpmax=69 / qpstep=4 / vbv_maxrate=24000 / vbv_bufsize=24000 / nal_hrd=none / ip_ratio=1.40 / aq=1:1.00Language : ItalianDefault : YesForced : NoDURATION : 02:51:43.752000000NUMBER_OF_FRAMES : 247043NUMBER_OF_BYTES : 5479502167_STATISTICS_WRITING_APP : mkvmerge v10.0.0 ('To Drown In You' 64bit_STATISTICS_WRITING_DATE_UTC : 2017-04-24 12:09:55_STATISTICS_TAGS : BPS DURATION NUMBER_OF_FRAMES NUMBER_OF_BYTESAudio #1ID : 2Format : AC-3Format/Info : Audio Coding 3Mode extension : CM (complete main)Codec ID : A_AC3Duration : 2h 51mnBit rate mode : ConstantBit rate : 256 KbpsChannel(s) : 2 channelsChannel positions : Front: L RSampling rate : 44.1 KHzBit depth : 16 bitsCompression mode : LossyDelay relative to video : 1s 708msStream size : 315 MiB (10%)Title : Ita Ac3Language : EnglishDefault : NoForced : NoDURATION : 02:51:43.712000000NUMBER_OF_FRAMES : 321991NUMBER_OF_BYTES : 824296960_STATISTICS_WRITING_APP : mkvmerge v10.0.0 ('To Drown In You' 64bit_STATISTICS_WRITING_DATE_UTC : 2017-04-24 12:09:55_STATISTICS_TAGS : BPS DURATION NUMBER_OF_FRAMES NUMBER_OF_BYTESAudio #2ID : 3Format : AC-3Format/Info : Audio Coding 3Mode extension : CM (complete main)Codec ID : A_AC3Duration : 2h 51mnBit rate mode : ConstantBit rate : 384 KbpsChannel(s) : 6 channelsChannel positions : Front: L C R, Side: L R, LFESampling rate : 48.0 KHzBit depth : 16 bitsCompression mode : LossyDelay relative to video : -5msStream size : 472 MiB (15%)Title : Eng Ac3Language : EnglishDefault : NoForced : No

Dimensione: 3.11 GB

Categoria: BDRip

ISCRIVETEVI AL FORUM

Presto ci saranno molte novità, registratevi gratuitamente al forum

Ricordiamo a tutti che su Cultura Digitale non sono presenti nessun file, questo torrent è di proprietà del Corsaro nero. pubblicato sul loro sito al seguente indirizzo: - Beloved (1998).720p.H264.ita.eng.Ac3.sub.fre.prt.eng-MIRCrew Mux by robbyrs -

COLLEGAMENTO AL TORRENT

Importante: è un link con magnet, si dovrebbe aprire da solo. Se vi esce errore 404 nel vostro computer non è installato un programma per torrent o l’estensione che fa aprire i file magnet.

 Copiate questo link
magnet:?xt=urn:btih:55a80a3ceeba44676c0e6d8020e13aaa6a91755a&dn=Beloved+%281998%29.720p.H264.ita.eng.Ac3.sub.fre.prt.eng-MIRCrew+Mux+by+robbyrs&tr=udp%3A%2F%2Ftracker.coppersurfer.tk%3A6969%2Fannounce

Per firefox usare questa estensione – Per Chrome usare questa estensione
Oppure usare Torxh web browser

Se i link risultassero non raggiungibili o bloccati a livello DNS

Seguite la guida Su Questo Articolo : GUIDA COME CAMBIARE DNS