Benvenuti a Zombieland (2009).1080p.H264.ita.eng.Ac3-5.1.sub.ita.eng-MIRCrew – Torrent download

Ecco a voi il torrent Benvenuti a Zombieland (2009).1080p.H264.ita.eng.Ac3-5.1.sub.ita.eng-MIRCrew - proveniente dagli archivi di Torrent

Lo staff di Cultura digitale al fine di promuovere la cultura condivide i contenuti presenti sul sito il corsaro nero.

Nome del Torrent: Benvenuti a Zombieland (2009).1080p.H264.ita.eng.Ac3-5.1.sub.ita.eng-MIRCrew -

Descrizione del torrent: Zombieland  - Benvenuti a Zombieland (2009).1080p.H264.ita.eng.Ac3-5.1.sub.ita.eng-MIRCrewClicca qua per ingrandire questa immagineNO FOUND ONLY ORIGINAL RELEASEMy release is always in double track audio italian and Original audiofor select it use VLC or dvd player homenot use wmp Benvenuti a Zombieland - Zombieland (2009)Quality MIRCrew on HD 1080p da 2,1 gbClicca qua per ingrandire questa immagine Clicca qua per ingrandire questa immagineLingua originale inglesePaese di produzione Stati Uniti d'AmericaAnno 2009Durata 88 minRapporto 2,40:1Genere azione, fantascienza, orrore, commedia, thrillerRegia Ruben FleischerSoggetto Ruben FleischerSceneggiatura Rhett Reese, Paul WernickClicca qua per ingrandire questa immagine    Woody Harrelson: Tallahassee    Jesse Eisenberg: Columbus    Emma Stone: Wichita/Krista    Abigail Breslin: Little Rock    Amber Heard: 406    Bill Murray: Se stesso    Mike White: Benzinaio    Derek Graf: Clown zombieClicca qua per ingrandire questa immagineIl film ha luogo in un'America post-apocalittica, due mesi dopo un'epidemia mortale causata dal consumo di carne infetta di mucca pazza, che poi è diventato il virus della persona pazza e infine dello zombie pazzo. Clicca qua per ingrandire questa immagineA shy student trying to reach his family in Ohio, a gun-toting tough guy trying to find the last Twinkie, and a pair of sisters trying to get to an amusement park join forces to travel across a zombie-filled America. Clicca qua per ingrandire questa immagine   Clicca qua per ingrandire questa immagine Clicca qua per ingrandire questa immagine Clicca qua per ingrandire questa immagine Clicca qua per ingrandire questa immagine Clicca qua per ingrandire questa immagine Clicca qua per ingrandire questa immagineClicca qua per ingrandire questa immagineGeneralComplete name                            : Benvenuti a zombieland - Zombieland (2009).1080p.H264.ita.eng.sub.ita.eng-MIRCrewBenvenuti a zombieland - Zombieland (2009).1080p.H264.ita.eng.sub.ita.eng-MIRCrew.mkvFormat                                   : MatroskaFormat version                           : Version 2File size                                : 2.12 GiBDuration                                 : 1h 27mnOverall bit rate                         : 3 463 KbpsMovie name                               : robbyrsEncoded date                             : UTC 2019-11-28 13:56:27Writing application                      : mkvmerge v5.8.0 ('No Sleep / Pillow' built on Sep  2 2012 15:37:04Writing library                          : Lavf54.63.100COMMENT                                  : robbyrsCOPYRIGHT                                : robbyrsVideoID                                       : 1Format                                   : AVCFormat/Info                              : Advanced Video CodecFormat profile                           : [email protected] settings, CABAC                   : YesFormat settings, ReFrames                : 2 framesCodec ID                                 : V_MPEG4/ISO/AVCDuration                                 : 1h 27mnBit rate                                 : 2 600 KbpsWidth                                    : 1 920 pixelsHeight                                   : 800 pixelsDisplay aspect ratio                     : 2.40:1Frame rate mode                          : VariableFrame rate                               : 23.976 fpsColor space                              : YUVChroma subsampling                       : 4:2:0Bit depth                                : 8 bitsScan type                                : ProgressiveBits/(Pixel*Frame)                       : 0.071Stream size                              : 1.53 GiB (72%)Title                                    : robbyrsWriting library                          : x264 core 130 r2273Encoding settings                        : cabac=1 / ref=2 / deblock=1:0:0 / analyse=0x1:0x131 / me=hex / subme=7 / psy=1 / psy_rd=1.00:0.00 / mixed_ref=0 / me_range=16 / chroma_me=1 / trellis=1 / 8x8dct=0 / cqm=0 / deadzone=21,11 / fast_pskip=1 / chroma_qp_offset=-2 / threads=9 / lookahead_threads=1 / sliced_threads=0 / nr=0 / decimate=1 / interlaced=0 / bluray_compat=0 / constrained_intra=0 / bframes=3 / b_pyramid=0 / b_adapt=1 / b_bias=0 / direct=3 / weightb=1 / open_gop=0 / weightp=2 / keyint=230 / keyint_min=23 / scenecut=40 / intra_refresh=0 / rc_lookahead=40 / rc=abr / mbtree=1 / bitrate=2600 / ratetol=1.0 / qcomp=0.60 / qpmin=10 / qpmax=69 / qpstep=4 / vbv_maxrate=24000 / vbv_bufsize=24000 / nal_hrd=none / ip_ratio=1.40 / aq=1:1.00Language                                 : ItalianDefault                                  : YesForced                                   : NoDURATION                                 : 01:27:41.423000000NUMBER_OF_FRAMES                         : 126148NUMBER_OF_BYTES                          : 2854917838_STATISTICS_WRITING_APP                  : mkvmerge v15.0.0 ('Duel with the Devil' 64-bit_STATISTICS_WRITING_DATE_UTC             : 2019-11-28 13:56:27_STATISTICS_TAGS                         : BPS DURATION NUMBER_OF_FRAMES NUMBER_OF_BYTESAudio #1ID                                       : 2Format                                   : AC-3Format/Info                              : Audio Coding 3Mode extension                           : CM (complete main)Codec ID                                 : A_AC3Duration                                 : 1h 27mnBit rate mode                            : ConstantBit rate                                 : 448 KbpsChannel(s)                               : 6 channelsChannel positions                        : Front: L C R, Side: L R, LFESampling rate                            : 48.0 KHzBit depth                                : 16 bitsCompression mode                         : LossyDelay relative to video                  : -5msStream size                              : 281 MiB (13%)Title                                    : Ita Ac3 5.1Language                                 : ItalianDefault                                  : YesForced                                   : NoDURATION                                 : 01:27:42.240000000NUMBER_OF_FRAMES                         : 164445NUMBER_OF_BYTES                          : 294685440_STATISTICS_WRITING_APP                  : mkvmerge v15.0.0 ('Duel with the Devil' 64-bit_STATISTICS_WRITING_DATE_UTC             : 2019-11-28 13:56:27_STATISTICS_TAGS                         : BPS DURATION NUMBER_OF_FRAMES NUMBER_OF_BYTESAudio #2ID                                       : 3Format                                   : AC-3Format/Info                              : Audio Coding 3Mode extension                           : CM (complete main)Codec ID                                 : A_AC3Duration                                 : 1h 27mnBit rate mode                            : ConstantBit rate                                 : 448 KbpsChannel(s)                               : 6 channelsChannel positions                        : Front: L C R, Side: L R, LFESampling rate                            : 48.0 KHzBit depth                                : 16 bitsCompression mode                         : LossyDelay relative to video                  : -5msStream size                              : 281 MiB (13%)Title                                    : Eng Ac3 5.1Language                                 : EnglishDefault                                  : NoForced                                   : NoDURATION                                 : 01:27:42.240000000NUMBER_OF_FRAMES                         : 164445NUMBER_OF_BYTES                          : 294685440_STATISTICS_WRITING_APP                  : mkvmerge v15.0.0 ('Duel with the Devil' 64-bit_STATISTICS_WRITING_DATE_UTC             : 2019-11-28 13:56:27_STATISTICS_TAGS                         : BPS DURATION NUMBER_OF_FRAMES NUMBER_OF_BYTES

Dimensione: 2.12 GB

Categoria: BDRip

ISCRIVETEVI AL FORUM

Presto ci saranno molte novità, registratevi gratuitamente al forum

Ricordiamo a tutti che su Cultura Digitale non sono presenti nessun file, questo torrent è di proprietà del Corsaro nero. pubblicato sul loro sito al seguente indirizzo: Benvenuti a Zombieland (2009).1080p.H264.ita.eng.Ac3-5.1.sub.ita.eng-MIRCrew -

COLLEGAMENTO AL TORRENT

Importante: è un link con magnet, si dovrebbe aprire da solo. Se vi esce errore 404 nel vostro computer non è installato un programma per torrent o l’estensione che fa aprire i file magnet.

 Copiate questo link
magnet:?xt=urn:btih:198b55f51c875ba9818be6baa77031e4b3f068ee&dn=Benvenuti+a+Zombieland+%282009%29.1080p.H264.ita.eng.Ac3-5.1.sub.ita.eng-MIRCrew&tr=udp%3A%2F%2Ftracker.coppersurfer.tk%3A6969%2Fannounce

Per firefox usare questa estensione – Per Chrome usare questa estensione
Oppure usare Torxh web browser

Se i link risultassero non raggiungibili o bloccati a livello DNS

Seguite la guida Su Questo Articolo : GUIDA COME CAMBIARE DNS