– Billion-Colpo in Costa azzurra (2019) ITA-RUS Ac3 5.1 WebRip 1080p H264 [ArMor] – – Torrent dowload

Ecco a voi il torrent – Billion-Colpo in Costa azzurra (2019) ITA-RUS Ac3 5.1 WebRip 1080p H264 [ArMor] – proveniente dagli archivi di [Torrent]

Lo staff di Cultura digitale al fine di promuovere la cultura condivide i contenuti presenti sul sito il corsaro nero.

Nome del Torrent: – Billion-Colpo in Costa azzurra (2019) ITA-RUS Ac3 5.1 WebRip 1080p H264 [ArMor] –

Descrizione del torrent: [center]Clicca qua per ingrandire questa immagineTitolo originale: BillionGenere: Azione, ThrillerRegia: Roman PrygunovPaese di produzione: Russia – Lingua originale: RussianDurata: 101 minutiClicca qua per ingrandire questa immagineAleksandra Bortich, Gela Meskhi, Pavel Chinaryov, Vladimir MashkovClicca qua per ingrandire questa immagineMatvey Levin è un banchiere di successo, ricco e affascinante. Un passo falso nel mondo degli affari sta per costargli molto caro. L’unico modo che ha per salvare il suo patrimonio da miliardi di dollari è mettere in atto l’incredibile piano criminale che ha pensato, ma per farlo dovrà prima eseguire un’operazione molto più impegnativa: riconquistare la fiducia dei suoi figli…Clicca qua per ingrandire questa immagineInfluential banker Matvey Levin goes to great lengths to avoid sharing his wealth with his illegitimate children. But when he loses everything it transpires that only they can help him. To reinstate his wealth Matvey will have to rob his own bank in Monte Carlo. To do this he first needs to carry out a far more challenging operation: he must regain the trust of his estranged children. Clicca qua per ingrandire questa immagineClicca qua per ingrandire questa immagineGeneralUnique ID                                : 229580586840505365432009657354478100796 (0xACB79CD8E614CAEE9B5A90634B03213C)Complete name                            : Billion-Colpo in Costa azzurra (2019) ITA-RUS Ac3 5.1 WebRip 1080p H264 [ArMor].mkvFormat                                   : MatroskaFormat version                           : Version 4File size                                : 3.15 GiBDuration                                 : 1 h 36 minOverall bit rate                         : 4 664 kb/sEncoded date                             : UTC 2020-10-28 13:11:11Writing application                      : mkvmerge v15.0.0 ('Duel with the Devil&#39 64-bitWriting library                          : libebml v1.3.5 + libmatroska v1.4.5 / Lavf58.29.100VideoID                                       : 1Format                                   : AVCFormat/Info                              : Advanced Video CodecFormat profile                           : [email protected] settings                          : CABAC / 4 Ref FramesFormat settings, CABAC                   : YesFormat settings, Reference frames        : 4 framesCodec ID                                 : V_MPEG4/ISO/AVCDuration                                 : 1 h 36 minBit rate                                 : 3 766 kb/sWidth                                    : 1 920 pixelsHeight                                   : 804 pixelsDisplay aspect ratio                     : 2.40:1Frame rate mode                          : ConstantFrame rate                               : 25.000 FPSColor space                              : YUVChroma subsampling                       : 4:2:0Bit depth                                : 8 bitsScan type                                : ProgressiveBits/(Pixel*Frame)                       : 0.098Stream size                              : 2.55 GiB (81%)Writing library                          : x264 core 157 r2935 545de2fEncoding settings                        : cabac=1 / ref=2 / deblock=1:0:0 / analyse=0x1:0x111 / me=hex / subme=6 / psy=1 / psy_rd=1.00:0.00 / mixed_ref=1 / me_range=16 / chroma_me=1 / trellis=1 / 8x8dct=0 / cqm=0 / deadzone=21,11 / fast_pskip=1 / chroma_qp_offset=-2 / threads=18 / lookahead_threads=3 / sliced_threads=0 / nr=0 / decimate=1 / interlaced=0 / bluray_compat=0 / constrained_intra=0 / bframes=3 / b_pyramid=2 / b_adapt=1 / b_bias=0 / direct=1 / weightb=1 / open_gop=0 / weightp=1 / keyint=250 / keyint_min=25 / scenecut=40 / intra_refresh=0 / rc_lookahead=30 / rc=crf / mbtree=1 / crf=20.0 / qcomp=0.60 / qpmin=0 / qpmax=69 / qpstep=4 / vbv_maxrate=20000 / vbv_bufsize=25000 / crf_max=0.0 / nal_hrd=none / filler=0 / ip_ratio=1.40 / aq=1:1.00Default                                  : YesForced                                   : NoColor range                              : LimitedColor primaries                          : BT.709Transfer characteristics                 : BT.709Matrix coefficients                      : BT.709Audio #1ID                                       : 2Format                                   : AC-3Format/Info                              : Audio Coding 3Commercial name                          : Dolby DigitalCodec ID                                 : A_AC3Duration                                 : 1 h 36 minBit rate mode                            : ConstantBit rate                                 : 448 kb/sChannel(s)                               : 6 channelsChannel layout                           : L R C LFE Ls RsSampling rate                            : 48.0 kHzFrame rate                               : 31.250 FPS (1536 SPF)Compression mode                         : LossyStream size                              : 310 MiB (10%)Title                                    : WEBDL EAC3Language                                 : ItalianService kind                             : Complete MainDefault                                  : YesForced                                   : NoAudio #2ID                                       : 3Format                                   : AC-3Format/Info                              : Audio Coding 3Commercial name                          : Dolby DigitalCodec ID                                 : A_AC3Duration                                 : 1 h 36 minBit rate mode                            : ConstantBit rate                                 : 448 kb/sChannel(s)                               : 6 channelsChannel layout                           : L R C LFE Ls RsSampling rate                            : 48.0 kHzFrame rate                               : 31.250 FPS (1536 SPF)Compression mode                         : LossyStream size                              : 310 MiB (10%)Title                                    : SurroundLanguage                                 : RussianService kind                             : Complete MainDefault                                  : NoForced                                   : No[/center]Clicca qua per ingrandire questa immagine

Dimensione:3.15 GB

Categoria: BDRip

ISCRIVETEVI AL FORUM

Presto ci saranno molte novità, registratevi gratuitamente al forum

Ricordiamo a tutti che su Cultura Digitale non sono presenti nessun file, questo torrent è di proprietà del Corsaro nero. pubblicato sul loro sito al seguente indirizzo: – Billion-Colpo in Costa azzurra (2019) ITA-RUS Ac3 5.1 WebRip 1080p H264 [ArMor] –

COLLEGAMENTO AL TORRENT

Importante: è un link con magnet, si dovrebbe aprire da solo. Se vi esce errore 404 nel vostro computer non è installato un programma per torrent o l’estensione che fa aprire i file magnet.

 Copiate questo link
magnet:?xt=urn:btih:6e69820bd56040e611521f39b6c0e0ef4b50549c&dn=Billion-Colpo+in+Costa+azzurra+%282019%29+ITA-RUS+Ac3+5.1+WebRip+1080p+H264+%5BArMor%5D&tr=udp%3A%2F%2Ftracker.coppersurfer.tk%3A6969%2Fannounce

Per firefox usare questa estensione – Per Chrome usare questa estensione
Oppure usare Torxh web browser

Se i link risultassero non raggiungibili o bloccati a livello DNS

Seguite la guida Su Questo Articolo : GUIDA COME CAMBIARE DNS