Blinded by the Light Travolto dalla musica (2019).720p.H264.ita.eng.Ac3-5.1.sub.ita.eng-MIRCrew – Torrent download

Ecco a voi il torrent Blinded by the Light Travolto dalla musica (2019).720p.H264.ita.eng.Ac3-5.1.sub.ita.eng-MIRCrew - proveniente dagli archivi di Torrent

Lo staff di Cultura digitale al fine di promuovere la cultura condivide i contenuti presenti sul sito il corsaro nero.

Nome del Torrent: Blinded by the Light Travolto dalla musica (2019).720p.H264.ita.eng.Ac3-5.1.sub.ita.eng-MIRCrew -

Descrizione del torrent: Blinded by the Light - Travolto dalla musica (2019).720p.H264.ita.eng.Ac3-5.1.sub.ita.eng-MIRCrewClicca qua per ingrandire questa immagineNO FOUND ONLY ORIGINAL RELEASEMy release is always in double track audio italian and Original audiofor select it use VLC or dvd player homenot use wmp Blinded by the Light - Travolto dalla musica (2019)Quality MIRCrew on HD 720p da 2,2gb Clicca qua per ingrandire questa immagine Clicca qua per ingrandire questa immagineTitolo originale Blinded by the LightLingua originale inglesePaese di produzione Regno UnitoAnno 2019Durata 118 minGenere biografico, commedia, drammatico, musicaleRegia Gurinder ChadhaSoggetto memorie di Sarfraz ManzoorSceneggiatura Paul Mayeda Berges, Gurinder Chadha, Sarfraz ManzoorClicca qua per ingrandire questa immagine    Viveik Kalra: Javed Khan    Hayley Atwell: signorina Clay    Kulvinder Ghir: Malik Khan    Meera Ganatra: Noor Khan    Dean-Charles Chapman: Matt    Rob Brydon: padre di Matt    Nell Williams: Eliza    Aaron Phagura: Roops    Jonno Davies: Michael    Sally Phillips: sig.ra AndersonClicca qua per ingrandire questa immagineNel 1987 Javed Khan e la sua famiglia, i genitori pakistani Malik e Noor e le sorelle Yasmeen e Shazia, vivono a Luton, in Inghilterra. A Javed piace la musica rock contemporanea e scrive poesie e testi per la band del suo migliore amico Matt, che lo critica dicendogli che usa tematiche deprimenti. Clicca qua per ingrandire questa immagineIn England in 1987, a teenager from an Asian family learns to live his life, understand his family and find his own voice through the music of American rock star Bruce Springsteen.Clicca qua per ingrandire questa immagine Clicca qua per ingrandire questa immagineClicca qua per ingrandire questa immagine Clicca qua per ingrandire questa immagine Clicca qua per ingrandire questa immagine Clicca qua per ingrandire questa immagineClicca qua per ingrandire questa immagineGeneralComplete name                            : Blinded By The Light (2019).720p.H264.ita.eng.sub.ita.eng-MIRCrewBlinded By The Light (2019).720p.H264.ita.eng.sub.ita.eng-MIRCrew.mkvFormat                                   : MatroskaFormat version                           : Version 2File size                                : 2.23 GiBDuration                                 : 1h 57mnOverall bit rate                         : 2 716 KbpsMovie name                               : robbyrsEncoded date                             : UTC 2019-12-13 06:25:54Writing application                      : mkvmerge v5.8.0 ('No Sleep / Pillow' built on Sep  2 2012 15:37:04Writing library                          : Lavf54.63.100COMMENT                                  : robbyrsCOPYRIGHT                                : robbyrsVideoID                                       : 1Format                                   : AVCFormat/Info                              : Advanced Video CodecFormat profile                           : [email protected] settings, CABAC                   : YesFormat settings, ReFrames                : 2 framesCodec ID                                 : V_MPEG4/ISO/AVCDuration                                 : 1h 57mnBit rate                                 : 1 894 KbpsNominal bit rate                         : 2 000 KbpsWidth                                    : 1 296 pixelsHeight                                   : 544 pixelsDisplay aspect ratio                     : 2.40:1Frame rate mode                          : VariableFrame rate                               : 23.976 fpsColor space                              : YUVChroma subsampling                       : 4:2:0Bit depth                                : 8 bitsScan type                                : ProgressiveBits/(Pixel*Frame)                       : 0.112Stream size                              : 1.56 GiB (70%)Title                                    : robbyrsWriting library                          : x264 core 130 r2273Encoding settings                        : cabac=1 / ref=2 / deblock=1:0:0 / analyse=0x1:0x131 / me=hex / subme=7 / psy=1 / psy_rd=1.00:0.00 / mixed_ref=0 / me_range=16 / chroma_me=1 / trellis=1 / 8x8dct=0 / cqm=0 / deadzone=21,11 / fast_pskip=1 / chroma_qp_offset=-2 / threads=9 / lookahead_threads=1 / sliced_threads=0 / nr=0 / decimate=1 / interlaced=0 / bluray_compat=0 / constrained_intra=0 / bframes=3 / b_pyramid=0 / b_adapt=1 / b_bias=0 / direct=3 / weightb=1 / open_gop=0 / weightp=2 / keyint=230 / keyint_min=23 / scenecut=40 / intra_refresh=0 / rc_lookahead=40 / rc=abr / mbtree=1 / bitrate=2000 / ratetol=1.0 / qcomp=0.60 / qpmin=10 / qpmax=69 / qpstep=4 / vbv_maxrate=24000 / vbv_bufsize=24000 / nal_hrd=none / ip_ratio=1.40 / aq=1:1.00Language                                 : ItalianDefault                                  : YesForced                                   : NoDURATION                                 : 01:57:46.309000000NUMBER_OF_FRAMES                         : 169422NUMBER_OF_BYTES                          : 7639974777_STATISTICS_WRITING_APP                  : mkvmerge v41.0.0 ('Smarra' 64-bit_STATISTICS_WRITING_DATE_UTC             : 2019-12-13 06:25:54_STATISTICS_TAGS                         : BPS DURATION NUMBER_OF_FRAMES NUMBER_OF_BYTESAudio #1ID                                       : 2Format                                   : AC-3Format/Info                              : Audio Coding 3Mode extension                           : CM (complete main)Codec ID                                 : A_AC3Duration                                 : 1h 57mnBit rate mode                            : ConstantBit rate                                 : 384 KbpsChannel(s)                               : 6 channelsChannel positions                        : Front: L C R, Side: L R, LFESampling rate                            : 48.0 KHzBit depth                                : 16 bitsCompression mode                         : LossyDelay relative to video                  : -5msStream size                              : 323 MiB (14%)Title                                    : Ita Ac3 5.1Language                                 : ItalianDefault                                  : NoForced                                   : NoDURATION                                 : 01:57:44.640000000NUMBER_OF_FRAMES                         : 220770NUMBER_OF_BYTES                          : 339102720_STATISTICS_WRITING_APP                  : mkvmerge v41.0.0 ('Smarra' 64-bit_STATISTICS_WRITING_DATE_UTC             : 2019-12-13 06:25:54_STATISTICS_TAGS                         : BPS DURATION NUMBER_OF_FRAMES NUMBER_OF_BYTESAudio #2ID                                       : 3Format                                   : AC-3Format/Info                              : Audio Coding 3Mode extension                           : CM (complete main)Codec ID                                 : A_AC3Duration                                 : 1h 57mnBit rate mode                            : ConstantBit rate                                 : 384 KbpsChannel(s)                               : 6 channelsChannel positions                        : Front: L C R, Side: L R, LFESampling rate                            : 48.0 KHzBit depth                                : 16 bitsCompression mode                         : LossyDelay relative to video                  : -5msStream size                              : 323 MiB (14%)Title                                    : Eng Ac3 5.1Language                                 : EnglishDefault                                  : NoForced                                   : NoDURATION                                 : 01:57:46.336000000NUMBER_OF_FRAMES                         : 220823NUMBER_OF_BYTES                          : 565306880_STATISTICS_WRITING_APP                  : mkvmerge v41.0.0 ('Smarra' 64-bit_STATISTICS_WRITING_DATE_UTC             : 2019-12-13 06:25:54_STATISTICS_TAGS                         : BPS DURATION NUMBER_OF_FRAMES NUMBER_OF_BYTESMenu00:00:00.000                             : :Chapter 0100:11:10.211                             : :Chapter 0200:20:03.660                             : :Chapter 0300:30:13.269                             : :Chapter 0400:39:49.595                             : :Chapter 0500:48:52.012                             : :Chapter 0600:58:27.212                             : :Chapter 0701:08:39.490                             : :Chapter 0801:19:01.820                             : :Chapter 0901:28:16.791                             : :Chapter 1001:40:07.042                             : :Chapter 1101:51:37.399                             : :Chapter 12

Dimensione: 2.23 GB

Categoria: BDRip

ISCRIVETEVI AL FORUM

Presto ci saranno molte novità, registratevi gratuitamente al forum

Ricordiamo a tutti che su Cultura Digitale non sono presenti nessun file, questo torrent è di proprietà del Corsaro nero. pubblicato sul loro sito al seguente indirizzo: Blinded by the Light Travolto dalla musica (2019).720p.H264.ita.eng.Ac3-5.1.sub.ita.eng-MIRCrew -

COLLEGAMENTO AL TORRENT

Importante: è un link con magnet, si dovrebbe aprire da solo. Se vi esce errore 404 nel vostro computer non è installato un programma per torrent o l’estensione che fa aprire i file magnet.

 Copiate questo link
magnet:?xt=urn:btih:39ffedada66448c4328d25e72414da2c3d62f8f2&dn=Blinded+by+the+Light+-+Travolto+dalla+musica+%282019%29.720p.H264.ita.eng.Ac3-5.1.sub.ita.eng-MIRCrew&tr=udp%3A%2F%2Ftracker.coppersurfer.tk%3A6969%2Fannounce

Per firefox usare questa estensione – Per Chrome usare questa estensione
Oppure usare Torxh web browser

Se i link risultassero non raggiungibili o bloccati a livello DNS

Seguite la guida Su Questo Articolo : GUIDA COME CAMBIARE DNS