Buck Rogers in the 25th Century Season 1×01-02.1080p.ita.Ac3 5.1-eng Ac3 2.0 sub.ita-MIRCrew – Torrent download

Ecco a voi il torrent Buck Rogers in the 25th Century Season 1x01-02.1080p.ita.Ac3 5.1-eng Ac3 2.0 sub.ita-MIRCrew - proveniente dagli archivi di Torrent

Lo staff di Cultura digitale al fine di promuovere la cultura condivide i contenuti presenti sul sito il corsaro nero.

Nome del Torrent: Buck Rogers in the 25th Century Season 1x01-02.1080p.ita.Ac3 5.1-eng Ac3 2.0 sub.ita-MIRCrew -

Descrizione del torrent: Venite a trovarci su mircrew-releases.orgBuck Rogers in the 25th Century - Season 1x01-02.1080p.ita.Ac3 5.1-eng Ac3 2.0 sub.ita-MIRCrewClicca qua per ingrandire questa immagineClicca qua per ingrandire questa immagineClicca qua per ingrandire questa immagineClicca qua per ingrandire questa immagineBuck Rogers (Buck Rogers in the 25th Century) è una serie televisiva statunitense in 37 episodi trasmessi per la prima volta nel corso di 2 stagioni dal 1979 al 1981.È una serie d avventura a sfondo fantascientifico prodotta da Glen A. Larson e basata sull'omonimo personaggio, nato nel 1928 dalla penna di Philip Francis Nowlan sulla rivista pulp Amazing Stories e reso popolare nelle strisce a fumetti. È la seconda serie televisiva dedicata a Buck Rogers, dopo quella del 1950. EPISODIO PILOTTitolo originale Buck Rogers in the 25th CenturyPaese Stati Uniti d'AmericaAnno 1979-1981Formato serie TVGenere fantascienza, avventuraStagioni 2Episodi 37Durata 45 minLingua originale inglese   Clicca qua per ingrandire questa immagine Clicca qua per ingrandire questa immagineIl capitano William 'Buck' Rogers, astronauta risvegliatosi nel 2491 dopo una ibernazione nello spazio durata più di 500 anni, si ritrova in un universo molto diverso da quello che conosceva nel 1987. Clicca qua per ingrandire questa immagineIn 1987, NASA astronaut William "Buck" Rogers is caught in a freak accident in deep space, causing his space shuttle Ranger 3 to be blown into an orbit that returns him to Earth - over 500 years later. The combination of gases that freezes him comes close to the formula commonly used in the 25th century for preservation, and his rescuers are able to revive him. In 2491, when Buck awakens from the freezing, Earth is recovering from a nuclear war and is coming under hostile attack by the Draconian Empire.Clicca qua per ingrandire questa immaginePersonaggi principali    Capitano William "Buck" Rogers (32 episodi, 1979-1981), interpretato da Gil Gerard.    Colonnello Wilma Deering (32 episodi, 1979-1981), interpretato da Erin Gray.    Twiki (30 episodi, 1979-1981), interpretato da Felix Silla.    Twiki (27 episodi, 1979-1981), interpretato da Mel Blanc.    Dottor Elias Huer (21 episodi, 1979-1980), interpretato da Tim O'Connor.    Narratore (21 episodi, 1979-1980), interpretato da William Conrad.    Dottor Theopolis (19 episodi, 1979-1980), interpretato da Eric Server.Clicca qua per ingrandire questa immagine1 Awakening (1) Risveglio - prima parte 2 Awakening (2) Risveglio - seconda parte3 Planet of the Slave Girls (1) Il pianeta della schiava - prima parte 4 Planet of the Slave Girls (2) Il pianeta della schiava - seconda parte 5 Vegas in Space Las Vegas dello spazio   6 The Plot to Kill a City (1) La congiura - prima parte 7 The Plot to Kill a City (2) La congiura - seconda parte 8 Return of the Fighting 69th Sessantanovesima squadra 9 Unchained Woman Fuga da Zeta 10 Planet of the Amazon Women Il pianeta delle Amazzoni 11 Cosmic Wiz Kid Uno straordinario bambino 12 Escape From Wedded Bliss La fuga 13 Cruise Ship to the Stars Miss cosmo 14 Space Vampire Il vampiro 0 15 Happy Birthday, Buck Buon compleanno Buck 16 A Blast for Buck Un enigma per Buck 17 Ardala Returns Il ritorno di Ardala 18 Twiki is Missing Il rapimento di Twiki 19 Olympiad Olimpiadi 20 A Dream of Jennifer Il sogno di Jennifer 21 Space Rockers Gli Andromeda 22 Buck's Duel to the Death Duello con la morte 23 Flight of the War Witch (1) La maga di guerra - prima parte 24 Flight of the War Witch (2) La maga di guerra - seconda parte Clicca qua per ingrandire questa immagine Clicca qua per ingrandire questa immagineGeneralComplete name                            : Buck Rogers in the 25th.Century.Season 1x01-02.1080p.ita.Ac3 5.1-eng Ac3 2.0 sub.ita-MIRCrewBuck Rogers in the 25th.Century.Season 1x01-02.1080p.ita.Ac3 5.1-eng Ac3 2.0 sub.ita-MIRCrew.mkvFormat                                   : MatroskaFormat version                           : Version 2File size                                : 2.37 GiBDuration                                 : 1h 37mnOverall bit rate                         : 3 486 KbpsMovie name                               : MIRCrew by robbyrsEncoded date                             : UTC 2020-06-01 19:27:03Writing application                      : mkvmerge v5.8.0 ('No Sleep / Pillow' built on Sep  2 2012 15:37:04Writing library                          : Lavf54.63.100COMMENT                                  : MIRCrew by robbyrsCOPYRIGHT                                : MIRCrew by robbyrsVideoID                                       : 1Format                                   : AVCFormat/Info                              : Advanced Video CodecFormat profile                           : [email protected] settings, CABAC                   : YesFormat settings, ReFrames                : 2 framesCodec ID                                 : V_MPEG4/ISO/AVCDuration                                 : 1h 37mnBit rate                                 : 2 600 KbpsWidth                                    : 1 456 pixelsHeight                                   : 1 072 pixelsDisplay aspect ratio                     : 4:3Frame rate mode                          : VariableFrame rate                               : 23.976 fpsColor space                              : YUVChroma subsampling                       : 4:2:0Bit depth                                : 8 bitsScan type                                : ProgressiveBits/(Pixel*Frame)                       : 0.069Stream size                              : 1.76 GiB (74%)Title                                    : MIRCrew by robbyrsWriting library                          : x264 core 130 r2273Encoding settings                        : cabac=1 / ref=2 / deblock=1:-1:-1 / analyse=0x1:0x131 / me=hex / subme=7 / psy=1 / psy_rd=1.00:0.10 / mixed_ref=0 / me_range=16 / chroma_me=1 / trellis=1 / 8x8dct=0 / cqm=0 / deadzone=21,11 / fast_pskip=1 / chroma_qp_offset=-3 / threads=9 / lookahead_threads=1 / sliced_threads=0 / nr=0 / decimate=1 / interlaced=0 / bluray_compat=0 / constrained_intra=0 / bframes=3 / b_pyramid=0 / b_adapt=1 / b_bias=0 / direct=3 / weightb=1 / open_gop=0 / weightp=2 / keyint=230 / keyint_min=23 / scenecut=40 / intra_refresh=0 / rc_lookahead=40 / rc=abr / mbtree=1 / bitrate=2600 / ratetol=1.0 / qcomp=0.60 / qpmin=10 / qpmax=69 / qpstep=4 / vbv_maxrate=24000 / vbv_bufsize=24000 / nal_hrd=none / ip_ratio=1.40 / aq=1:1.00Language                                 : ItalianDefault                                  : YesForced                                   : NoDURATION                                 : 01:37:25.382000000NUMBER_OF_FRAMES                         : 140149NUMBER_OF_BYTES                          : 6690873989_STATISTICS_WRITING_APP                  : mkvmerge v19.0.0 ('Brave Captain' 64-bit_STATISTICS_WRITING_DATE_UTC             : 2018-02-11 06:44:57_STATISTICS_TAGS                         : BPS DURATION NUMBER_OF_FRAMES NUMBER_OF_BYTESAudio #1ID                                       : 2Format                                   : AC-3Format/Info                              : Audio Coding 3Mode extension                           : CM (complete main)Codec ID                                 : A_AC3Duration                                 : 1h 37mnBit rate mode                            : ConstantBit rate                                 : 640 KbpsChannel(s)                               : 6 channelsChannel positions                        : Front: L C R, Side: L R, LFESampling rate                            : 48.0 KHzBit depth                                : 16 bitsCompression mode                         : LossyDelay relative to video                  : 958msStream size                              : 446 MiB (18%)Title                                    : Ita Ac3 5.1Language                                 : EnglishDefault                                  : NoForced                                   : NoDURATION                                 : 01:37:24.885000000NUMBER_OF_FRAMES                         : 68495NUMBER_OF_BYTES                          : 336192550_STATISTICS_WRITING_APP                  : mkvmerge v19.0.0 ('Brave Captain' 64-bit_STATISTICS_WRITING_DATE_UTC             : 2018-02-11 06:44:57_STATISTICS_TAGS                         : BPS DURATION NUMBER_OF_FRAMES NUMBER_OF_BYTESAudio #2ID                                       : 3Format                                   : AC-3Format/Info                              : Audio Coding 3Mode extension                           : CM (complete main)Codec ID                                 : A_AC3Duration                                 : 1h 37mnBit rate mode                            : ConstantBit rate                                 : 192 KbpsChannel(s)                               : 2 channelsChannel positions                        : Front: L RSampling rate                            : 48.0 KHzBit depth                                : 16 bitsCompression mode                         : LossyDelay relative to video                  : -5msStream size                              : 134 MiB (6%)Title                                    : Eng Ac3 2.0Language                                 : EnglishDefault                                  : NoForced                                   : NoMenu00:00:00.000                             : :00:00:00.00000:00:32.115                             : :00:00:32.11500:14:47.095                             : :00:14:47.09500:23:22.401                             : :00:23:22.40100:33:28.590                             : :00:33:28.59000:45:37.360                             : :00:45:37.36000:58:45.105                             : :00:58:45.10501:09:38.132                             : :01:09:38.13201:23:04.980                             : :01:23:04.98001:36:33.454                             : :01:36:33.454

Dimensione: 2.37 GB

Categoria: SerieTv

ISCRIVETEVI AL FORUM

Presto ci saranno molte novità, registratevi gratuitamente al forum

Ricordiamo a tutti che su Cultura Digitale non sono presenti nessun file, questo torrent è di proprietà del Corsaro nero. pubblicato sul loro sito al seguente indirizzo: Buck Rogers in the 25th Century Season 1x01-02.1080p.ita.Ac3 5.1-eng Ac3 2.0 sub.ita-MIRCrew -

COLLEGAMENTO AL TORRENT

Importante: è un link con magnet, si dovrebbe aprire da solo. Se vi esce errore 404 nel vostro computer non è installato un programma per torrent o l’estensione che fa aprire i file magnet.

 Copiate questo link
magnet:?xt=urn:btih:5f59e3f1a84baee83de020c77b1b996c9d35e134&dn=Buck+Rogers+in+the+25th+Century+-+Season+1x01-02.1080p.ita.Ac3+5.1-eng+Ac3+2.0+sub.ita-MIRCrew&tr=udp%3A%2F%2Ftracker.torrent.eu.org%3A451%2Fannounce

Per firefox usare questa estensione – Per Chrome usare questa estensione
Oppure usare Torxh web browser

Se i link risultassero non raggiungibili o bloccati a livello DNS

Seguite la guida Su Questo Articolo : GUIDA COME CAMBIARE DNS