Chicago.P.D.S07E20.Silence.of.the.Night.WEBMux.ITA.x264-BlackBit.mkv – Torrent download

Ecco a voi il torrent Chicago.P.D.S07E20.Silence.of.the.Night.WEBMux.ITA.x264-BlackBit.mkv - proveniente dagli archivi di Torrent

Lo staff di Cultura digitale al fine di promuovere la cultura condivide i contenuti presenti sul sito il corsaro nero.

Nome del Torrent: Chicago.P.D.S07E20.Silence.of.the.Night.WEBMux.ITA.x264-BlackBit.mkv -

Descrizione del torrent: Chicago PD - Stagione 7itolo originale Chicago P.D.Paese Stati Uniti d'AmericaAnno 2014 – in produzioneFormato serie TVGenere poliziesco, drammatico, azioneStagioni 7Episodi 150Durata 41 minuti (episodio)Lingua originale ingleseRapporto 16:9La serie racconta le vicende della polizia di Chicago, sia dell'unità di pattuglia sia dell'unità d'intelligence, e della loro lotta contro il crimine che affligge le strade di Chicago.[spoiler[/spoiler[spoilerGeneralUnique ID : 334778775831660367252052253934627198334 (0xFBDC0C026BE98F3EF14AA9F41562157E)Complete name : C:UsersAdministratorVideosChicago PD S07Chicago.P.D.S07E01.Doubt.WEBMux.ITA.x264-BlackBit.mkvFormat : MatroskaFormat version : Version 4File size : 389 MiBDuration : 41 min 58 sOverall bit rate : 1 296 kb/sEncoded date : UTC 2020-02-13 21:35:49Writing application : mkvmerge v43.0.0 ('The Quartermaster' 64-bitWriting library : libebml v1.3.10 + libmatroska v1.5.2VideoID : 1Format : AVCFormat/Info : Advanced Video CodecFormat profile : [email protected] settings : CABAC / 15 Ref FramesFormat settings, CABAC : YesFormat settings, Reference : 15 framesCodec ID : V_MPEG4/ISO/AVCDuration : 41 min 58 sBit rate : 1 102 kb/sWidth : 720 pixelsHeight : 404 pixelsDisplay aspect ratio : 16:9Frame rate mode : ConstantFrame rate : 23.976 (24000/1001) FPSColor space : YUVChroma subsampling : 4:2:0Bit depth : 8 bitsScan type : ProgressiveBits/(Pixel*Frame) : 0.158Stream size : 331 MiB (85%)Writing library : x264 core 157 r2969 d4099ddEncoding settings : cabac=1 / ref=15 / deblock=1:0:0 / analyse=0x3:0x133 / me=umh / subme=9 / psy=1 / psy_rd=1.00:0.00 / mixed_ref=1 / me_range=24 / chroma_me=1 / trellis=2 / 8x8dct=1 / cqm=0 / deadzone=21,11 / fast_pskip=0 / chroma_qp_offset=-2 / threads=12 / lookahead_threads=2 / sliced_threads=0 / nr=0 / decimate=1 / interlaced=0 / bluray_compat=0 / constrained_intra=0 / bframes=8 / b_pyramid=2 / b_adapt=2 / b_bias=0 / direct=3 / weightb=1 / open_gop=0 / weightp=2 / keyint=240 / keyint_min=23 / scenecut=40 / intra_refresh=0 / rc_lookahead=60 / rc=crf / mbtree=0 / crf=18.0 / qcomp=0.60 / qpmin=0 / qpmax=69 / qpstep=4 / vbv_maxrate=17500 / vbv_bufsize=17500 / crf_max=0.0 / nal_hrd=none / filler=0 / ip_ratio=1.40 / pb_ratio=1.30 / aq=1:1.00Default : YesForced : YesAudioID : 2Format : AC-3Format/Info : Audio Coding 3Commercial name : Dolby DigitalCodec ID : A_AC3Duration : 41 min 58 sBit rate mode : ConstantBit rate : 192 kb/sChannel(s) : 2 channelsChannel layout : L RSampling rate : 48.0 kHzFrame rate : 31.250 FPS (1536 SPF)Compression mode : LossyStream size : 57.6 MiB (15%)Language : ItalianService kind : Complete MainDefault : YesForced : Yes[/spoiler

Dimensione: 424.93 MB

Categoria: SerieTv

ISCRIVETEVI AL FORUM

Presto ci saranno molte novità, registratevi gratuitamente al forum

Ricordiamo a tutti che su Cultura Digitale non sono presenti nessun file, questo torrent è di proprietà del Corsaro nero. pubblicato sul loro sito al seguente indirizzo: Chicago.P.D.S07E20.Silence.of.the.Night.WEBMux.ITA.x264-BlackBit.mkv -

COLLEGAMENTO AL TORRENT

Importante: è un link con magnet, si dovrebbe aprire da solo. Se vi esce errore 404 nel vostro computer non è installato un programma per torrent o l’estensione che fa aprire i file magnet.

 Copiate questo link
magnet:?xt=urn:btih:d96b8b7974a5a39e75dd3fd633735b0bd6368417&dn=Chicago.P.D.S07E20.Silence.of.the.Night.WEBMux.ITA.x264-BlackBit.mkv&tr=udp%3A%2F%2Ftracker.coppersurfer.tk%3A6969%2Fannounce

Per firefox usare questa estensione – Per Chrome usare questa estensione
Oppure usare Torxh web browser

Se i link risultassero non raggiungibili o bloccati a livello DNS

Seguite la guida Su Questo Articolo : GUIDA COME CAMBIARE DNS