Cleanskin (2012).720p.H264.ita.eng.Ac3-5.1.sub.ita-MIRCrew – Torrent download

Ecco a voi il torrent Cleanskin (2012).720p.H264.ita.eng.Ac3-5.1.sub.ita-MIRCrew - proveniente dagli archivi di Torrent

Lo staff di Cultura digitale al fine di promuovere la cultura condivide i contenuti presenti sul sito il corsaro nero.

Nome del Torrent: Cleanskin (2012).720p.H264.ita.eng.Ac3-5.1.sub.ita-MIRCrew -

Descrizione del torrent: Cleanskin (2012).720p.H264.ita.eng.Ac3-5.1.sub.ita-MIRCrewClicca qua per ingrandire questa immagineNO FOUND ONLY ORIGINAL RELEASEMy release is always in double track audio italian and Original audiofor select it use VLC or dvd player homenot use wmp Cleanskin (2012)Quality MIRCrew on HD 720p da 2,0 gbClicca qua per ingrandire questa immagine [img]hhttps://s19.postimg.cc/bgh0za7kj/banner_scheda.gif[/img]Titolo originale CleanskinLingua originale inglesePaese di produzione Regno UnitoAnno 2012Durata 108 minRapporto 16:9Genere thriller, azione, drammaticoRegia Hadi HajaigSoggetto Hadi HajaigSceneggiatura Hadi Hajaig    Sean Bean: Ewan    Charlotte Rampling: Charlotte McQueen    Abhin Galeya: Ash    Tuppence Middleton: Kate    Tom Burke: Mark    Peter Polycarpou: Nabil    Silas Carson: Amin    Sam Douglas: Harry    Shivani Ghai: Rena    James Fox: Scott Catesby    Michelle Ryan: Emma    Jeetandra Lathigra: Hussein MalikA Londra, Ewan è un agente dei servizi segreti britannici, segnato dal lutto per la prematura morte di sua moglie e inaridito dalla violenza che il suo lavoro gli comporta. A British secret service agent is faced with the task of pursuing and eliminating a British-born suicide bomber and his terrorist cell.Clicca qua per ingrandire questa immagine   Clicca qua per ingrandire questa immagine Clicca qua per ingrandire questa immagine Clicca qua per ingrandire questa immagine Clicca qua per ingrandire questa immagineGeneralUnique ID                                : 251779630646338972541488334352763895757 (0xBD6AFE3590EDBB0776DD747B33F0BFCD)Complete name                            : Cleanskin (2012).720p.H264.ita.eng.sub.ita-MIRCrewCleanskin (2012).720p.H264.ita.eng.sub.ita-MIRCrew.mkvFormat                                   : MatroskaFormat version                           : Version 2File size                                : 2.08 GiBDuration                                 : 1h 43mnOverall bit rate                         : 2 872 KbpsMovie name                               : robbyrsEncoded date                             : UTC 2019-12-24 15:00:59Writing application                      : Lavf54.63.100Writing library                          : Lavf54.63.100COMMENT                                  : robbyrsCOPYRIGHT                                : robbyrsVideoID                                       : 1Format                                   : AVCFormat/Info                              : Advanced Video CodecFormat profile                           : [email protected] settings, CABAC                   : YesFormat settings, ReFrames                : 2 framesCodec ID                                 : V_MPEG4/ISO/AVCDuration                                 : 1h 43mnBit rate                                 : 2 000 KbpsWidth                                    : 1 280 pixelsHeight                                   : 720 pixelsDisplay aspect ratio                     : 16:9Frame rate mode                          : VariableFrame rate                               : 25.000 fpsColor space                              : YUVChroma subsampling                       : 4:2:0Bit depth                                : 8 bitsScan type                                : ProgressiveBits/(Pixel*Frame)                       : 0.087Stream size                              : 1.39 GiB (67%)Title                                    : CleanskinWriting library                          : x264 core 130 r2273Encoding settings                        : cabac=1 / ref=2 / deblock=1:0:0 / analyse=0x1:0x131 / me=hex / subme=7 / psy=1 / psy_rd=1.00:0.00 / mixed_ref=0 / me_range=16 / chroma_me=1 / trellis=1 / 8x8dct=0 / cqm=0 / deadzone=21,11 / fast_pskip=1 / chroma_qp_offset=-2 / threads=6 / lookahead_threads=1 / sliced_threads=0 / nr=0 / decimate=1 / interlaced=0 / bluray_compat=0 / constrained_intra=0 / bframes=3 / b_pyramid=0 / b_adapt=1 / b_bias=0 / direct=3 / weightb=1 / open_gop=0 / weightp=2 / keyint=250 / keyint_min=25 / scenecut=40 / intra_refresh=0 / rc_lookahead=40 / rc=abr / mbtree=1 / bitrate=2000 / ratetol=1.0 / qcomp=0.60 / qpmin=10 / qpmax=69 / qpstep=4 / vbv_maxrate=24000 / vbv_bufsize=24000 / nal_hrd=none / ip_ratio=1.40 / aq=1:1.00Language                                 : ItalianDefault                                  : YesForced                                   : NoDURATION                                 : 01:43:26.000000000NUMBER_OF_FRAMES                         : 155150NUMBER_OF_BYTES                          : 9678160840_STATISTICS_WRITING_APP                  : mkvmerge v40.0.0 ('Old Town Road + Pony' 64-bit_STATISTICS_WRITING_DATE_UTC             : 2019-12-04 11:22:06_STATISTICS_TAGS                         : BPS DURATION NUMBER_OF_FRAMES NUMBER_OF_BYTESAudio #1ID                                       : 2Format                                   : AC-3Format/Info                              : Audio Coding 3Mode extension                           : CM (complete main)Codec ID                                 : A_AC3Duration                                 : 1h 43mnBit rate mode                            : ConstantBit rate                                 : 448 KbpsChannel(s)                               : 6 channelsChannel positions                        : Front: L C R, Side: L R, LFESampling rate                            : 48.0 KHzBit depth                                : 16 bitsCompression mode                         : LossyDelay relative to video                  : 1mn 5sStream size                              : 331 MiB (16%)Title                                    : Ac3 5.1Language                                 : ItalianDefault                                  : YesForced                                   : NoDURATION                                 : 01:43:25.952000000NUMBER_OF_FRAMES                         : 581808NUMBER_OF_BYTES                          : 1170597696_STATISTICS_WRITING_APP                  : mkvmerge v40.0.0 ('Old Town Road + Pony' 64-bit_STATISTICS_WRITING_DATE_UTC             : 2019-12-04 11:22:06_STATISTICS_TAGS                         : BPS DURATION NUMBER_OF_FRAMES NUMBER_OF_BYTESAudio #2ID                                       : 3Format                                   : AC-3Format/Info                              : Audio Coding 3Mode extension                           : CM (complete main)Codec ID                                 : A_AC3Duration                                 : 1h 43mnBit rate mode                            : ConstantBit rate                                 : 448 KbpsChannel(s)                               : 6 channelsChannel positions                        : Front: L C R, Side: L R, LFESampling rate                            : 48.0 KHzBit depth                                : 16 bitsCompression mode                         : LossyDelay relative to video                  : 1mn 5sStream size                              : 331 MiB (16%)Title                                    : AC3 5.1Language                                 : EnglishDefault                                  : NoForced                                   : NoDURATION                                 : 01:43:25.984000000NUMBER_OF_FRAMES                         : 193937NUMBER_OF_BYTES                          : 496478720_STATISTICS_WRITING_APP                  : mkvmerge v40.0.0 ('Old Town Road + Pony' 64-bit_STATISTICS_WRITING_DATE_UTC             : 2019-12-04 11:22:06_STATISTICS_TAGS                         : BPS DURATION NUMBER_OF_FRAMES NUMBER_OF_BYTESMenu00:00:00.000                             : :Capitolo 100:10:31.280                             : :Capitolo 200:17:52.440                             : :Capitolo 300:27:41.560                             : :Capitolo 400:36:23.000                             : :Capitolo 500:43:41.880                             : :Capitolo 600:51:49.520                             : :Capitolo 701:01:57.640                             : :Capitolo 801:10:33.520                             : :Capitolo 901:20:48.400                             : :Capitolo 1001:28:44.440                             : :Capitolo 1101:34:50.280                             : :Capitolo 12

Dimensione: 2.08 GB

Categoria: BDRip

ISCRIVETEVI AL FORUM

Presto ci saranno molte novità, registratevi gratuitamente al forum

Ricordiamo a tutti che su Cultura Digitale non sono presenti nessun file, questo torrent è di proprietà del Corsaro nero. pubblicato sul loro sito al seguente indirizzo: Cleanskin (2012).720p.H264.ita.eng.Ac3-5.1.sub.ita-MIRCrew -

COLLEGAMENTO AL TORRENT

Importante: è un link con magnet, si dovrebbe aprire da solo. Se vi esce errore 404 nel vostro computer non è installato un programma per torrent o l’estensione che fa aprire i file magnet.

 Copiate questo link
magnet:?xt=urn:btih:9491256abb46b46468c7966dc7273186ae0d2a77&dn=Cleanskin+%282012%29.720p.H264.ita.eng.Ac3-5.1.sub.ita-MIRCrew&tr=udp%3A%2F%2Ftracker.coppersurfer.tk%3A6969%2Fannounce

Per firefox usare questa estensione – Per Chrome usare questa estensione
Oppure usare Torxh web browser

Se i link risultassero non raggiungibili o bloccati a livello DNS

Seguite la guida Su Questo Articolo : GUIDA COME CAMBIARE DNS