Crawl Intrappolati (2019).720p.H264.ita.eng.Ac3-5.1.sub.ita.eng-MIRCrew – Torrent download

I Testi di tutte le canzoni del Festival di Sanremo 2020
TUTTE LE CANZONI DI SANREMO 2020

Ecco a voi il torrent Crawl Intrappolati (2019).720p.H264.ita.eng.Ac3-5.1.sub.ita.eng-MIRCrew - proveniente dagli archivi di Torrent

Lo staff di Cultura digitale al fine di promuovere la cultura condivide i contenuti presenti sul sito il corsaro nero.

Nome del Torrent: Crawl Intrappolati (2019).720p.H264.ita.eng.Ac3-5.1.sub.ita.eng-MIRCrew -

Descrizione del torrent: Crawl - Intrappolati (2019).720p.H264.ita.eng.Ac3-5.1.sub.ita.eng-MIRCrewNO FOUND ONLY ORIGINAL RELEASEMy release is always in double track audio italian and Original audiofor select it use VLC or dvd player homenot use wmp Crawl - Intrappolati (2019)Quality MIRCrew on HD 720p da 1,6 gb Titolo originale CrawlLingua originale inglesePaese di produzione Stati Uniti d'AmericaAnno 2019Durata 87 minRapporto 2,35:1Genere Horror, thriller, drammatico, azione, avventuraRegia Alexandre AjaSceneggiatura Michael Rasmussen, Shawn Rasmussen    Kaya Scodelario: Haley Keller    Barry Pepper: Dave Keller    Ross Anderson: Wayne Taylor    Moryfydd Clark: Beth Keller    George Somner: Marv    Ami Metcalf: Lee    Anson Boon: Stan    Jose Palma: Pete    Annamaria Serda: Emma    Savannah Steyn: Lisa    Srna Vasilijevic: Louie    Cso-Cso: Sugar    Colin McFarlane: governatoreL'aspirante nuotatrice dell'Università della Florida, Haley Keller, riceve una telefonata da sua sorella Beth, che la informa che un uragano di categoria 5 è in rotta di collisione con la Florida e le consiglia di uscire dallo stato. Haley è preoccupata per la sicurezza di suo padre Dave, poiché non risponde al telefono. A young woman, while attempting to save her father during a category 5 hurricane, finds herself trapped in a flooding house and must fight for her life against alligators.   GeneralComplete name                            : Crawl - Intrappolati (2019).720p.H264.ita.eng.sub.ita.eng-MIRCrewCrawl - Intrappolati (2019).720p.H264.ita.eng.sub.ita.eng-MIRCrew.mkvFormat                                   : MatroskaFormat version                           : Version 2File size                                : 1.62 GiBDuration                                 : 1h 27mnOverall bit rate                         : 2 649 KbpsMovie name                               : MIRcrewEncoded date                             : UTC 2019-10-27 20:12:17Writing application                      : mkvmerge v5.8.0 ('No Sleep / Pillow' built on Sep  2 2012 15:37:04Writing library                          : Lavf54.63.100COMMENT                                  : robbyrsCOPYRIGHT                                : robbyrsVideoID                                       : 1Format                                   : AVCFormat/Info                              : Advanced Video CodecFormat profile                           : [email protected] settings, CABAC                   : YesFormat settings, ReFrames                : 2 framesCodec ID                                 : V_MPEG4/ISO/AVCDuration                                 : 1h 27mnBit rate                                 : 1 900 KbpsWidth                                    : 1 280 pixelsHeight                                   : 528 pixelsDisplay aspect ratio                     : 2.40:1Frame rate mode                          : VariableFrame rate                               : 23.976 fpsColor space                              : YUVChroma subsampling                       : 4:2:0Bit depth                                : 8 bitsScan type                                : ProgressiveBits/(Pixel*Frame)                       : 0.117Stream size                              : 1.12 GiB (69%)Title                                    : MIRCrewWriting library                          : x264 core 130 r2273Encoding settings                        : cabac=1 / ref=2 / deblock=1:0:0 / analyse=0x1:0x131 / me=hex / subme=7 / psy=1 / psy_rd=1.00:0.00 / mixed_ref=0 / me_range=16 / chroma_me=1 / trellis=1 / 8x8dct=0 / cqm=0 / deadzone=21,11 / fast_pskip=1 / chroma_qp_offset=-2 / threads=9 / lookahead_threads=1 / sliced_threads=0 / nr=0 / decimate=1 / interlaced=0 / bluray_compat=0 / constrained_intra=0 / bframes=3 / b_pyramid=0 / b_adapt=1 / b_bias=0 / direct=3 / weightb=1 / open_gop=0 / weightp=2 / keyint=230 / keyint_min=23 / scenecut=40 / intra_refresh=0 / rc_lookahead=40 / rc=abr / mbtree=1 / bitrate=1900 / ratetol=1.0 / qcomp=0.60 / qpmin=10 / qpmax=69 / qpstep=4 / vbv_maxrate=24000 / vbv_bufsize=24000 / nal_hrd=none / ip_ratio=1.40 / aq=1:1.00Language                                 : ItalianDefault                                  : YesForced                                   : NoDURATION                                 : 01:27:32.080000000NUMBER_OF_FRAMES                         : 125924NUMBER_OF_BYTES                          : 1377995028_STATISTICS_WRITING_APP                  : mkvmerge v38.0.0 ('The Silent Type' 64-bit_STATISTICS_WRITING_DATE_UTC             : 2019-10-27 20:12:17_STATISTICS_TAGS                         : BPS DURATION NUMBER_OF_FRAMES NUMBER_OF_BYTESAudio #1ID                                       : 2Format                                   : AC-3Format/Info                              : Audio Coding 3Mode extension                           : CM (complete main)Codec ID                                 : A_AC3Duration                                 : 1h 27mnBit rate mode                            : ConstantBit rate                                 : 384 KbpsChannel(s)                               : 2 channelsChannel positions                        : Front: L RSampling rate                            : 48.0 KHzBit depth                                : 16 bitsCompression mode                         : LossyDelay relative to video                  : -5msStream size                              : 240 MiB (14%)Title                                    : Ita Ac3 5.1Language                                 : ItalianDefault                                  : YesForced                                   : NoDURATION                                 : 01:27:31.744000000NUMBER_OF_FRAMES                         : 164117NUMBER_OF_BYTES                          : 294097664_STATISTICS_WRITING_APP                  : mkvmerge v38.0.0 ('The Silent Type' 64-bit_STATISTICS_WRITING_DATE_UTC             : 2019-10-27 20:12:17_STATISTICS_TAGS                         : BPS DURATION NUMBER_OF_FRAMES NUMBER_OF_BYTESAudio #2ID                                       : 3Format                                   : AC-3Format/Info                              : Audio Coding 3Mode extension                           : CM (complete main)Codec ID                                 : A_AC3Duration                                 : 1h 27mnBit rate mode                            : ConstantBit rate                                 : 384 KbpsChannel(s)                               : 6 channelsChannel positions                        : Front: L C R, Side: L R, LFESampling rate                            : 48.0 KHzBit depth                                : 16 bitsCompression mode                         : LossyDelay relative to video                  : -5msStream size                              : 240 MiB (14%)Title                                    : Eng Ac3 5.1Language                                 : EnglishDefault                                  : NoForced                                   : NoDURATION                                 : 01:27:32.128000000NUMBER_OF_FRAMES                         : 164129NUMBER_OF_BYTES                          : 420170240_STATISTICS_WRITING_APP                  : mkvmerge v38.0.0 ('The Silent Type' 64-bit_STATISTICS_WRITING_DATE_UTC             : 2019-10-27 20:12:17_STATISTICS_TAGS                         : BPS DURATION NUMBER_OF_FRAMES NUMBER_OF_BYTES

Dimensione: 1.62 GB

Categoria: BDRip

ISCRIVETEVI AL FORUM

Presto ci saranno molte novità, registratevi gratuitamente al forum

Ricordiamo a tutti che su Cultura Digitale non sono presenti nessun file, questo torrent è di proprietà del Corsaro nero. pubblicato sul loro sito al seguente indirizzo: Crawl Intrappolati (2019).720p.H264.ita.eng.Ac3-5.1.sub.ita.eng-MIRCrew -

COLLEGAMENTO AL TORRENT

Importante: è un link con magnet, si dovrebbe aprire da solo. Se vi esce errore 404 nel vostro computer non è installato un programma per torrent o l’estensione che fa aprire i file magnet.

 Copiate questo link
magnet:?xt=urn:btih:1fdeb348fdade040b1af86cbbc866b7c62b96cb3&dn=Crawl+-+Intrappolati+%282019%29.720p.H264.ita.eng.Ac3-5.1.sub.ita.eng-MIRCrew&tr=udp%3A%2F%2Ftracker.coppersurfer.tk%3A6969%2Fannounce

Per firefox usare questa estensione – Per Chrome usare questa estensione
Oppure usare Torxh web browser

Se i link risultassero non raggiungibili o bloccati a livello DNS

Seguite la guida Su Questo Articolo : GUIDA COME CAMBIARE DNS 

I Testi di tutte le canzoni del Festival di Sanremo 2020
TUTTE LE CANZONI DI SANREMO 2020