Crazy Heart (2009).1080p.H264.ita.eng.Ac3-5.1.sub.ita-MIRCrew – Torrent download

Ecco a voi il torrent Crazy Heart (2009).1080p.H264.ita.eng.Ac3-5.1.sub.ita-MIRCrew - proveniente dagli archivi di Torrent

Lo staff di Cultura digitale al fine di promuovere la cultura condivide i contenuti presenti sul sito il corsaro nero.

Nome del Torrent: Crazy Heart (2009).1080p.H264.ita.eng.Ac3-5.1.sub.ita-MIRCrew -

Descrizione del torrent: Crazy Heart (2009).1080p.H264.ita.eng.Ac3-5.1.sub.ita-MIRCrewClicca qua per ingrandire questa immagineNO FOUND ONLY ORIGINAL RELEASEMy release is always in double track audio italian and Original audiofor select it use VLC or dvd player homenot use wmp Crazy Heart (2009).1080pQuality MIRCrew on HD 720p da 2,6 gbClicca qua per ingrandire questa immagine Titolo originale Crazy HeartLingua originale inglesePaese di produzione Stati Uniti d'AmericaAnno 2009Durata 112 minGenere drammatico, musicaleRegia Scott CooperSoggetto Thomas CobbSceneggiatura Scott Cooper    Jeff Bridges: Bad Blake    Maggie Gyllenhaal: Jean Craddock    Robert Duvall: Wayne Kramer    Colin Farrell: Tommy Sweet    Paul Herman: Jack Greene    Beth Grant: JoAnne    Sarah Jane Morris: Marissa Reynolds    Annie Corley: Donna    Tom Bower: Bill WilsonIl film racconta la crisi della vita privata e pubblica del cantante country alcolizzato Bad Blake, interpretato da Jeff Bridges, che riuscirà a ricostruire la propria carriera grazie al supporto e all'amore di una giornalista, Jean Craddock (Maggie Gyllenhaal). A faded country music musician is forced to reassess his dysfunctional life during a doomed romance that also inspires him.  Clicca qua per ingrandire questa immagine   Clicca qua per ingrandire questa immagine Clicca qua per ingrandire questa immagine Clicca qua per ingrandire questa immagine Clicca qua per ingrandire questa immagineGeneralComplete name                            : Crazy Heart (2009).1080p.H264.ita.eng.sub.ita-MIRCrewCrazy Heart (2009).1080p.H264.ita.eng.sub.ita-MIRCrew.mkvFormat                                   : MatroskaFormat version                           : Version 4 / Version 2File size                                : 2.63 GiBDuration                                 : 1h 51mnOverall bit rate                         : 3 373 KbpsEncoded date                             : UTC 2020-01-04 09:41:45Writing application                      : mkvmerge v26.0.0 ('In The Game' 64-bitWriting library                          : Lavf58.20.100VideoID                                       : 1Format                                   : AVCFormat/Info                              : Advanced Video CodecFormat profile                           : [email protected] settings, CABAC                   : YesFormat settings, ReFrames                : 4 framesCodec ID                                 : V_MPEG4/ISO/AVCDuration                                 : 1h 51mnBit rate                                 : 2 473 KbpsNominal bit rate                         : 2 600 KbpsWidth                                    : 1 920 pixelsHeight                                   : 816 pixelsDisplay aspect ratio                     : 2.35:1Frame rate                               : 23.976 fpsColor space                              : YUVChroma subsampling                       : 4:2:0Bit depth                                : 8 bitsScan type                                : ProgressiveBits/(Pixel*Frame)                       : 0.066Stream size                              : 1.93 GiB (73%)Title                                    : robbyrsWriting library                          : x264 core 157 r2935 545de2fEncoding settings                        : cabac=1 / ref=2 / deblock=1:0:0 / analyse=0x1:0x111 / me=hex / subme=6 / psy=1 / psy_rd=1.00:0.00 / mixed_ref=1 / me_range=16 / chroma_me=1 / trellis=1 / 8x8dct=0 / cqm=0 / deadzone=21,11 / fast_pskip=1 / chroma_qp_offset=-2 / threads=6 / lookahead_threads=1 / sliced_threads=0 / nr=0 / decimate=1 / interlaced=0 / bluray_compat=0 / constrained_intra=0 / bframes=3 / b_pyramid=2 / b_adapt=1 / b_bias=0 / direct=1 / weightb=1 / open_gop=0 / weightp=1 / keyint=240 / keyint_min=24 / scenecut=40 / intra_refresh=0 / rc_lookahead=30 / rc=abr / mbtree=1 / bitrate=2600 / ratetol=1.0 / qcomp=0.60 / qpmin=0 / qpmax=69 / qpstep=4 / vbv_maxrate=50000 / vbv_bufsize=62500 / nal_hrd=none / filler=0 / ip_ratio=1.40 / aq=1:1.00Language                                 : ItalianDefault                                  : YesForced                                   : NoDURATION                                 : 01:51:37.900000000NUMBER_OF_FRAMES                         : 160589NUMBER_OF_BYTES                          : 2125404880_STATISTICS_WRITING_APP                  : mkvmerge v26.0.0 ('In The Game' 64-bit_STATISTICS_WRITING_DATE_UTC             : 2020-01-04 09:41:45_STATISTICS_TAGS                         : BPS DURATION NUMBER_OF_FRAMES NUMBER_OF_BYTESColor primaries                          : BT.709-5, BT.1361, IEC 61966-2-4, SMPTE RP177Transfer characteristics                 : BT.709-5, BT.1361Matrix coefficients                      : BT.709-5, BT.1361, IEC 61966-2-4 709, SMPTE RP177Audio #1ID                                       : 2Format                                   : AC-3Format/Info                              : Audio Coding 3Mode extension                           : CM (complete main)Codec ID                                 : A_AC3Duration                                 : 1h 51mnBit rate mode                            : ConstantBit rate                                 : 448 KbpsChannel(s)                               : 6 channelsChannel positions                        : Front: L C R, Side: L R, LFESampling rate                            : 48.0 KHzBit depth                                : 16 bitsCompression mode                         : LossyDelay relative to video                  : -5msStream size                              : 358 MiB (13%)Title                                    : Ita Ac3 5.1Language                                 : ItalianDefault                                  : YesForced                                   : NoDURATION                                 : 01:51:37.920000000NUMBER_OF_FRAMES                         : 209310NUMBER_OF_BYTES                          : 375083520_STATISTICS_WRITING_APP                  : mkvmerge v26.0.0 ('In The Game' 64-bit_STATISTICS_WRITING_DATE_UTC             : 2020-01-04 09:41:45_STATISTICS_TAGS                         : BPS DURATION NUMBER_OF_FRAMES NUMBER_OF_BYTESAudio #2ID                                       : 3Format                                   : AC-3Format/Info                              : Audio Coding 3Mode extension                           : CM (complete main)Codec ID                                 : A_AC3Duration                                 : 1h 51mnBit rate mode                            : ConstantBit rate                                 : 384 KbpsChannel(s)                               : 6 channelsChannel positions                        : Front: L C R, Side: L R, LFESampling rate                            : 48.0 KHzBit depth                                : 16 bitsCompression mode                         : LossyDelay relative to video                  : -5msStream size                              : 307 MiB (11%)Title                                    : Eng Ac3 5.1Language                                 : EnglishDefault                                  : NoForced                                   : NoDURATION                                 : 01:51:37.952000000NUMBER_OF_FRAMES                         : 209311NUMBER_OF_BYTES                          : 321501696_STATISTICS_WRITING_APP                  : mkvmerge v26.0.0 ('In The Game' 64-bit_STATISTICS_WRITING_DATE_UTC             : 2020-01-04 09:41:45_STATISTICS_TAGS                         : BPS DURATION NUMBER_OF_FRAMES NUMBER_OF_BYTESMenu00:00:00.000                             : :Capitolo 100:05:34.334                             : :Capitolo 200:09:19.517                             : :Capitolo 300:15:13.663                             : :Capitolo 400:17:55.825                             : :Capitolo 500:22:57.167                             : :Capitolo 600:26:11.737                             : :Capitolo 700:29:26.431                             : :Capitolo 800:33:05.984                             : :Capitolo 900:38:33.394                             : :Capitolo 1000:41:57.348                             : :Capitolo 1100:46:36.544                             : :Capitolo 1200:51:56.864                             : :Capitolo 1300:54:01.780                             : :Capitolo 1400:59:26.605                             : :Capitolo 1501:04:38.541                             : :Capitolo 1601:09:08.436                             : :Capitolo 1701:12:02.568                             : :Capitolo 1801:15:08.546                             : :Capitolo 1901:17:43.450                             : :Capitolo 2001:20:50.804                             : :Capitolo 2101:23:17.075                             : :Capitolo 2201:27:46.636                             : :Capitolo 2301:30:07.777                             : :Capitolo 2401:34:15.859                             : :Capitolo 2501:36:26.072                             : :Capitolo 2601:41:20.741                             : :Capitolo 2701:45:43.838                             : :Capitolo 28

Dimensione: 2.63 GB

Categoria: BDRip

ISCRIVETEVI AL FORUM

Presto ci saranno molte novità, registratevi gratuitamente al forum

Ricordiamo a tutti che su Cultura Digitale non sono presenti nessun file, questo torrent è di proprietà del Corsaro nero. pubblicato sul loro sito al seguente indirizzo: Crazy Heart (2009).1080p.H264.ita.eng.Ac3-5.1.sub.ita-MIRCrew -

COLLEGAMENTO AL TORRENT

Importante: è un link con magnet, si dovrebbe aprire da solo. Se vi esce errore 404 nel vostro computer non è installato un programma per torrent o l’estensione che fa aprire i file magnet.

 Copiate questo link
magnet:?xt=urn:btih:27ab5f773524ed277afa70185060a3ff5d2a3220&dn=Crazy+Heart+%282009%29.1080p.H264.ita.eng.Ac3-5.1.sub.ita-MIRCrew&tr=udp%3A%2F%2Ftracker.coppersurfer.tk%3A6969%2Fannounce

Per firefox usare questa estensione – Per Chrome usare questa estensione
Oppure usare Torxh web browser

Se i link risultassero non raggiungibili o bloccati a livello DNS

Seguite la guida Su Questo Articolo : GUIDA COME CAMBIARE DNS