Cyborg anno 2087 metà uomo metà macchina (1966).720p.H264.ita.eng-MIRCrew – Torrent download

Ecco a voi il torrent Cyborg anno 2087 metà uomo metà macchina (1966).720p.H264.ita.eng-MIRCrew - proveniente dagli archivi di Torrent

Lo staff di Cultura digitale al fine di promuovere la cultura condivide i contenuti presenti sul sito il corsaro nero.

Nome del Torrent: Cyborg anno 2087 metà uomo metà macchina (1966).720p.H264.ita.eng-MIRCrew -

Descrizione del torrent: VENITE A TROVARCI SU MIRCREW-RELEASESCyborg anno 2087 metà uomo metà macchina (1966).720p.H264.ita.eng-MIRCrewClicca qua per ingrandire questa immagineNO FOUND ONLY ORIGINAL RELEASEMy release is always in double track audio italian and Original audiofor select it use VLC or dvd player homenot use wmp Cyborg anno 2087 metà uomo metà macchina (1966)Quality MIRCrew on HD 720p da 1,4 gbClicca qua per ingrandire questa immagineClicca qua per ingrandire questa immagine Clicca qua per ingrandire questa immagineTitolo originale Cyborg 2087Lingua originale inglesePaese di produzione Stati Uniti d'AmericaAnno 1966Durata 86 minGenere fantascienzaRegia Franklin AdreonSceneggiatura Arthur C. PierceClicca qua per ingrandire questa immagine    Michael Rennie: Garth A7    Karen Steele: dottor Sharon Mason    Wendell Corey: sceriffo    Warren Stevens: dottor Carl Zellar    Eduard Franz: Prof. Sigmund Marx    Harry Carey Jr.: Jay C    Adam Rourke: vice Dan    Chubby Johnson: zio Pete    Tyler MacDuff: Sam Gilmore    Dale Van Sickel: rintracciatore #1    Troy Melton: rintracciatore #2    Jimmy Hibbard: Rick    Sherry Alberoni: Laura Zellar    Betty Jane Royale: Jill    John Beck: Skinny    George Fisher: addetto stazione basso    James Kline: addetto stazione alto    Charles Evans: Andrew    JoAnne Gaylord: moglie di Andrew    Ted Ryan: guardia all'ingresso    Harry Hollins: Harry, ufficiale delle comunicazioni    Ruth Foster: cittadina tra la folla    Larry Dean: uomo alla consolle di comando    Jo Ann Pflug: donna alla consolle di comando    Byron Morrow: Mr. Simmmons    Richard TravisClicca qua per ingrandire questa immagineGarth, un cyborg dal futuro, viaggia indietro nel tempo dal 2087 agli anni sessanta del Novecento, per evitare che il professor Sigmund Marx riveli la sua nuova scoperta, un'idea che renderà possibile il controllo della mente e che sarà responsabile di una società tirannica nel tempo di Garth. Clicca qua per ingrandire questa immagineIn the future world of the year 2087, freedom of thought is illegal and the thoughts of the world's populations are controlled by the government. A small band of "free thinkers" send a cyborg back in time to the year 1966 to prevent a scientist from making the breakthrough that will eventually lead to the mass thought control of the future. Clicca qua per ingrandire questa immagine   Clicca qua per ingrandire questa immagineClicca qua per ingrandire questa immagineClicca qua per ingrandire questa immagineClicca qua per ingrandire questa immagineClicca qua per ingrandire questa immagineGeneralUnique ID                                : 172750585134038446006026907061053248168 (0x81F68D6F75F3E0D38F516C43B51F52AComplete name                            : Cyborg anno 2087 metà uomo metà macchina (1966).720p.h264.ita.eng-MIRCrew.mkvFormat                                   : MatroskaFormat version                           : Version 2File size                                : 1.44 GiBDuration                                 : 1h 25mnOverall bit rate                         : 2 404 KbpsMovie name                               : MIRCrewEncoded date                             : UTC 2020-04-17 16:22:42Writing application                      : mkvmerge v5.8.0 ('No Sleep / Pillow' built on Sep  2 2012 15:37:04Writing library                          : Lavf54.63.100COMMENT                                  : MIRCrewVideoID                                       : 1Format                                   : AVCFormat/Info                              : Advanced Video CodecFormat profile                           : [email protected] settings, CABAC                   : YesFormat settings, ReFrames                : 2 framesCodec ID                                 : V_MPEG4/ISO/AVCDuration                                 : 1h 25mnBit rate                                 : 2 000 KbpsWidth                                    : 1 280 pixelsHeight                                   : 688 pixelsDisplay aspect ratio                     : 1.860Frame rate mode                          : VariableFrame rate                               : 23.976 fpsColor space                              : YUVChroma subsampling                       : 4:2:0Bit depth                                : 8 bitsScan type                                : ProgressiveBits/(Pixel*Frame)                       : 0.095Stream size                              : 1.18 GiB (82%)Title                                    : MIRCrewWriting library                          : x264 core 130 r2273Encoding settings                        : cabac=1 / ref=2 / deblock=1:0:0 / analyse=0x1:0x131 / me=hex / subme=7 / psy=1 / psy_rd=1.00:0.00 / mixed_ref=0 / me_range=16 / chroma_me=1 / trellis=1 / 8x8dct=0 / cqm=0 / deadzone=21,11 / fast_pskip=1 / chroma_qp_offset=-2 / threads=9 / lookahead_threads=1 / sliced_threads=0 / nr=0 / decimate=1 / interlaced=0 / bluray_compat=0 / constrained_intra=0 / bframes=3 / b_pyramid=0 / b_adapt=1 / b_bias=0 / direct=3 / weightb=1 / open_gop=0 / weightp=2 / keyint=230 / keyint_min=23 / scenecut=40 / intra_refresh=0 / rc_lookahead=40 / rc=abr / mbtree=1 / bitrate=2000 / ratetol=1.0 / qcomp=0.60 / qpmin=10 / qpmax=69 / qpstep=4 / vbv_maxrate=24000 / vbv_bufsize=24000 / nal_hrd=none / ip_ratio=1.40 / aq=1:1.00Language                                 : ItalianDefault                                  : YesForced                                   : NoAudio #1ID                                       : 2Format                                   : AC-3Format/Info                              : Audio Coding 3Mode extension                           : CM (complete main)Codec ID                                 : A_AC3Duration                                 : 1h 25mnBit rate mode                            : ConstantBit rate                                 : 192 KbpsChannel(s)                               : 2 channelsChannel positions                        : Front: L RSampling rate                            : 48.0 KHzBit depth                                : 16 bitsCompression mode                         : LossyDelay relative to video                  : -5msStream size                              : 118 MiB (8%)Title                                    : Ita Ac3 2.0Language                                 : ItalianDefault                                  : YesForced                                   : NoAudio #2ID                                       : 3Format                                   : AC-3Format/Info                              : Audio Coding 3Mode extension                           : CM (complete main)Codec ID                                 : A_AC3Duration                                 : 1h 25mnBit rate mode                            : ConstantBit rate                                 : 192 KbpsChannel(s)                               : 2 channelsChannel positions                        : Front: L RSampling rate                            : 48.0 KHzBit depth                                : 16 bitsCompression mode                         : LossyDelay relative to video                  : -5msStream size                              : 118 MiB (8%)Title                                    : Eng Ac3 2.0Language                                 : EnglishDefault                                  : NoForced                                   : NoMenu00:00:00.000                             : :Chapter 100:12:19.906                             : :Chapter 200:19:51.357                             : :Chapter 300:29:28.767                             : :Chapter 400:43:07.585                             : :Chapter 500:55:38.335                             : :Chapter 601:05:08.238                             : :Chapter 701:15:00.496                             : :Chapter 8

Dimensione: 1.44 GB

Categoria: BDRip

ISCRIVETEVI AL FORUM

Presto ci saranno molte novità, registratevi gratuitamente al forum

Ricordiamo a tutti che su Cultura Digitale non sono presenti nessun file, questo torrent è di proprietà del Corsaro nero. pubblicato sul loro sito al seguente indirizzo: Cyborg anno 2087 metà uomo metà macchina (1966).720p.H264.ita.eng-MIRCrew -

COLLEGAMENTO AL TORRENT

Importante: è un link con magnet, si dovrebbe aprire da solo. Se vi esce errore 404 nel vostro computer non è installato un programma per torrent o l’estensione che fa aprire i file magnet.

 Copiate questo link
magnet:?xt=urn:btih:0b7ee9b7d40e0b3f01b80aeb8d13e51e9719ff5e&dn=Cyborg+anno+2087+met%C3%A0+uomo+met%C3%A0+macchina+%281966%29.720p.H264.ita.eng-MIRCrew&tr=udp%3A%2F%2Ftracker.torrent.eu.org%3A451%2Fannounce

Per firefox usare questa estensione – Per Chrome usare questa estensione
Oppure usare Torxh web browser

Se i link risultassero non raggiungibili o bloccati a livello DNS

Seguite la guida Su Questo Articolo : GUIDA COME CAMBIARE DNS