Doctor.Who.2005.S12E04.Nikola.Teslas.Night.of.Terror.1080p.ITA.ENG.BDMux.x264-BlackBit.mkv – Torrent download

Ecco a voi il torrent Doctor.Who.2005.S12E04.Nikola.Teslas.Night.of.Terror.1080p.ITA.ENG.BDMux.x264-BlackBit.mkv - proveniente dagli archivi di Torrent

Lo staff di Cultura digitale al fine di promuovere la cultura condivide i contenuti presenti sul sito il corsaro nero.

Nome del Torrent: Doctor.Who.2005.S12E04.Nikola.Teslas.Night.of.Terror.1080p.ITA.ENG.BDMux.x264-BlackBit.mkv -

Descrizione del torrent: Doctor Who - Stagione 12itolo originale Doctor WhoPaese Regno UnitoAnno: 2005 – in produzione (nuova serie)Formato serie TVGenere fantascienza, avventura, fantastico, drammaticoRiprendono le avventure del Signore del Tempo più amato e longevo del piccolo schermo: il Dottore è di nuovo tra noi, rigenerato e pronto a viaggiare nel tempo e nello spazio con i suoi nuovi compagni di avventure, Rose, Mickey, Martha, Donna, e altri ancora con cui vivrà nuove, strabilianti avventure, combattendo nemici vecchi e nuovi, tra cui i temibili Daleks, i Cybermen e perfino l'antica nemesi del Dottore: il Maestro.[spoiler[/spoiler[spoilerGeneralUnique ID : 157263242608311137481523442082657836265 (0x764FCC7EC072355919626B1AC2D39CE9)Complete name : C:UsersAdministratorVideosDoctor Who S12Doctor.Who.2005.S12E01.Spyfall.Part.One.1080p.ITA.ENG.BDMux.x264-BlackBit.mkvFormat : MatroskaFormat version : Version 4File size : 5.09 GiBDuration : 59 min 49 sOverall bit rate : 12.2 Mb/sEncoded date : UTC 2020-06-15 14:49:15Writing application : mkvmerge v46.0.0 ('No Deeper Escape' 64-bitWriting library : libebml v1.3.10 + libmatroska v1.5.2VideoID : 1Format : AVCFormat/Info : Advanced Video CodecFormat profile : [email protected] settings : CABAC / 4 Ref FramesFormat settings, CABAC : YesFormat settings, Reference : 4 framesCodec ID : V_MPEG4/ISO/AVCDuration : 59 min 49 sBit rate : 11.3 Mb/sWidth : 1 920 pixelsHeight : 960 pixelsDisplay aspect ratio : 2.000Frame rate mode : ConstantFrame rate : 25.000 FPSColor space : YUVChroma subsampling : 4:2:0Bit depth : 8 bitsScan type : ProgressiveBits/(Pixel*Frame) : 0.246Stream size : 4.74 GiB (93%)Writing library : x264 core 158 r2984 3759fcbEncoding settings : cabac=1 / ref=4 / deblock=1:-3:-3 / analyse=0x3:0x133 / me=umh / subme=9 / psy=1 / psy_rd=1.00:0.00 / mixed_ref=1 / me_range=32 / chroma_me=1 / trellis=2 / 8x8dct=1 / cqm=0 / deadzone=21,11 / fast_pskip=0 / chroma_qp_offset=-2 / threads=30 / lookahead_threads=2 / sliced_threads=0 / nr=0 / decimate=0 / interlaced=0 / bluray_compat=0 / constrained_intra=0 / bframes=3 / b_pyramid=2 / b_adapt=2 / b_bias=0 / direct=3 / weightb=1 / open_gop=0 / weightp=2 / keyint=250 / keyint_min=25 / scenecut=40 / intra_refresh=0 / rc=crf / mbtree=0 / crf=17.0 / qcomp=0.60 / qpmin=0 / qpmax=69 / qpstep=4 / ip_ratio=1.40 / pb_ratio=1.30 / aq=3:0.80Default : YesForced : YesColor range : LimitedMatrix coefficients : BT.709Audio #1ID : 2Format : AC-3Format/Info : Audio Coding 3Commercial name : Dolby DigitalCodec ID : A_AC3Duration : 59 min 49 sBit rate mode : ConstantBit rate : 192 kb/sChannel(s) : 2 channelsChannel layout : L RSampling rate : 48.0 kHzFrame rate : 31.250 FPS (1536 SPF)Compression mode : LossyStream size : 82.2 MiB (2%)Language : ItalianService kind : Complete MainDefault : YesForced : YesAudio #2ID : 3Format : AC-3Format/Info : Audio Coding 3Commercial name : Dolby DigitalCodec ID : A_AC3Duration : 59 min 49 sBit rate mode : ConstantBit rate : 640 kb/sChannel(s) : 6 channelsChannel layout : L R C LFE Ls RsSampling rate : 48.0 kHzFrame rate : 31.250 FPS (1536 SPF)Compression mode : LossyStream size : 274 MiB (5%)Language : EnglishService kind : Complete MainDefault : NoForced : NoText #1ID : 4Format : UTF-8Codec ID : S_TEXT/UTF8Codec ID/Info : UTF-8 Plain TextDuration : 59 min 0 sBit rate : 0 b/sCount of elements : 5Stream size : 172 Bytes (0%)Language : ItalianDefault : YesForced : YesText #2ID : 5Format : UTF-8Codec ID : S_TEXT/UTF8Codec ID/Info : UTF-8 Plain TextDuration : 59 min 36 sBit rate : 70 b/sCount of elements : 916Stream size : 30.7 KiB (0%)Language : ItalianDefault : NoForced : NoText #3ID : 6Format : PGSMuxing mode : zlibCodec ID : S_HDMV/PGSCodec ID/Info : Picture based subtitle format used on BDs/HD-DVDsDuration : 59 min 42 sBit rate : 54.9 kb/sCount of elements : 2174Stream size : 23.5 MiB (0%)Title : English SDHLanguage : EnglishDefault : NoForced : NoMenu00:00:00.000 : en:Chapter 0100:06:10.640 : en:Chapter 0200:10:08.920 : en:Chapter 0300:15:49.240 : en:Chapter 0400:20:06.320 : en:Chapter 0500:25:43.000 : en:Chapter 0600:29:22.720 : en:Chapter 0700:33:57.120 : en:Chapter 0800:39:38.400 : en:Chapter 0900:44:23.720 : en:Chapter 1000:49:04.080 : en:Chapter 1100:59:03.440 : en:Chapter 12[/spoiler

Dimensione: 4.20 GB

Categoria: SerieTv

ISCRIVETEVI AL FORUM

Presto ci saranno molte novità, registratevi gratuitamente al forum

Ricordiamo a tutti che su Cultura Digitale non sono presenti nessun file, questo torrent è di proprietà del Corsaro nero. pubblicato sul loro sito al seguente indirizzo: Doctor.Who.2005.S12E04.Nikola.Teslas.Night.of.Terror.1080p.ITA.ENG.BDMux.x264-BlackBit.mkv -

COLLEGAMENTO AL TORRENT

Importante: è un link con magnet, si dovrebbe aprire da solo. Se vi esce errore 404 nel vostro computer non è installato un programma per torrent o l’estensione che fa aprire i file magnet.

 Copiate questo link
magnet:?xt=urn:btih:2382e3c23083f6d13a7d803732c4fe31511d6a60&dn=Doctor.Who.2005.S12E04.Nikola.Teslas.Night.of.Terror.1080p.ITA.ENG.BDMux.x264-BlackBit.mkv&tr=udp%3A%2F%2Ftracker.coppersurfer.tk%3A6969%2Fannounce

Per firefox usare questa estensione – Per Chrome usare questa estensione
Oppure usare Torxh web browser

Se i link risultassero non raggiungibili o bloccati a livello DNS

Seguite la guida Su Questo Articolo : GUIDA COME CAMBIARE DNS