Fear.The.Walking.Dead.S05E03-04.1080p.BDMux.ITA.ENG.x264-BlackBit – Torrent download

Ecco a voi il torrent Fear.The.Walking.Dead.S05E03-04.1080p.BDMux.ITA.ENG.x264-BlackBit - proveniente dagli archivi di Torrent

Lo staff di Cultura digitale al fine di promuovere la cultura condivide i contenuti presenti sul sito il corsaro nero.

Nome del Torrent: Fear.The.Walking.Dead.S05E03-04.1080p.BDMux.ITA.ENG.x264-BlackBit -

Descrizione del torrent: Fear the Walking Dead - Stagione 5itolo originale    Fear the Walking DeadPaese    Stati Uniti d'AmericaAnno    2015 – in produzioneFormato    serie TVGenere    drammatico, orrore, azioneStagioni    5Episodi    69Durata    45 min (episodio)Lingua originale    ingleseRapporto    16:9Spin-off dell'acclamata serie The Walking Dead, racconta l'antefatto della serie madre, illustrando in tutto il suo gore come il mondo è precipitato nel caos a causa di un virus che si è diffuso così rapidamente da cambiare la faccia del pianeta in pochissimo tempo.[spoiler[/spoiler[spoilerGeneralUnique ID                   : 165608232207011183079107641792855636827 (0x7C96FC3F88B38E845D69DE5639617B5B)Complete name               : C:UsersAdministratorVideosFear The Walking Dead S05Ep 01Fear.The.Walking.Dead.S05E01.Here.to.Help.REAL.REPACK.1080p.BDMux.ITA.ENG.x264-BlackBit.mkvFormat                      : MatroskaFormat version              : Version 4File size                   : 3.40 GiBDuration                    : 45 min 44 sOverall bit rate            : 10.6 Mb/sEncoded date                : UTC 2020-06-07 00:01:33Writing application         : mkvmerge v46.0.0 ('No Deeper Escape' 64-bitWriting library             : libebml v1.3.10 + libmatroska v1.5.2VideoID                          : 1Format                      : AVCFormat/Info                 : Advanced Video CodecFormat profile              : [email protected] settings             : CABAC / 4 Ref FramesFormat settings, CABAC      : YesFormat settings, Reference  : 4 framesCodec ID                    : V_MPEG4/ISO/AVCDuration                    : 45 min 44 sBit rate                    : 8 746 kb/sWidth                       : 1 920 pixelsHeight                      : 1 080 pixelsDisplay aspect ratio        : 16:9Frame rate mode             : ConstantFrame rate                  : 23.976 (24000/1001) FPSColor space                 : YUVChroma subsampling          : 4:2:0Bit depth                   : 8 bitsScan type                   : ProgressiveBits/(Pixel*Frame)          : 0.176Stream size                 : 2.79 GiB (82%)Writing library             : x264 core 158 r2988 7817004Encoding settings           : cabac=1 / ref=4 / deblock=1:-3:-3 / analyse=0x3:0x133 / me=umh / subme=8 / psy=1 / psy_rd=1.00:0.00 / mixed_ref=1 / me_range=16 / chroma_me=1 / trellis=1 / 8x8dct=1 / cqm=0 / deadzone=21,11 / fast_pskip=0 / chroma_qp_offset=-2 / threads=30 / lookahead_threads=5 / sliced_threads=0 / nr=0 / decimate=1 / interlaced=0 / bluray_compat=0 / constrained_intra=0 / bframes=3 / b_pyramid=2 / b_adapt=1 / b_bias=0 / direct=3 / weightb=1 / open_gop=0 / weightp=2 / keyint=250 / keyint_min=23 / scenecut=40 / intra_refresh=0 / rc_lookahead=50 / rc=2pass / mbtree=1 / bitrate=8746 / ratetol=1.0 / qcomp=0.60 / qpmin=0 / qpmax=69 / qpstep=4 / cplxblur=20.0 / qblur=0.5 / vbv_maxrate=62500 / vbv_bufsize=78125 / nal_hrd=none / filler=0 / ip_ratio=1.40 / aq=1:1.00Default                     : YesForced                      : YesAudio #1ID                          : 2Format                      : AC-3Format/Info                 : Audio Coding 3Commercial name             : Dolby DigitalCodec ID                    : A_AC3Duration                    : 45 min 44 sBit rate mode               : ConstantBit rate                    : 384 kb/sChannel(s)                  : 2 channelsChannel layout              : L RSampling rate               : 48.0 kHzFrame rate                  : 31.250 FPS (1536 SPF)Compression mode            : LossyStream size                 : 126 MiB (4%)Language                    : ItalianService kind                : Complete MainDefault                     : YesForced                      : YesAudio #2ID                          : 3Format                      : DTSFormat/Info                 : Digital Theater SystemsCodec ID                    : A_DTSDuration                    : 45 min 44 sBit rate mode               : ConstantBit rate                    : 1 509 kb/sChannel(s)                  : 6 channelsChannel layout              : C L R Ls Rs LFESampling rate               : 48.0 kHzFrame rate                  : 93.750 FPS (512 SPF)Bit depth                   : 24 bitsCompression mode            : LossyStream size                 : 494 MiB (14%)Language                    : EnglishDefault                     : NoForced                      : NoText #1ID                          : 4Format                      : UTF-8Codec ID                    : S_TEXT/UTF8Codec ID/Info               : UTF-8 Plain TextDuration                    : 34 min 29 sBit rate                    : 0 b/sCount of elements           : 4Stream size                 : 176 Bytes (0%)Language                    : ItalianDefault                     : YesForced                      : YesText #2ID                          : 5Format                      : UTF-8Codec ID                    : S_TEXT/UTF8Codec ID/Info               : UTF-8 Plain TextDuration                    : 45 min 2 sBit rate                    : 46 b/sCount of elements           : 554Stream size                 : 15.2 KiB (0%)Language                    : ItalianDefault                     : NoForced                      : NoMenu00:00:00.000                : en:00:00:00.00000:04:00.824                : en:00:04:00.82400:14:08.431                : en:00:14:08.43100:19:35.091                : en:00:19:35.09100:26:15.449                : en:00:26:15.44900:33:31.843                : en:00:33:31.84300:45:05.995                : en:00:45:05.995[/spoiler

Dimensione: 6.80 GB

Categoria: SerieTv

ISCRIVETEVI AL FORUM

Presto ci saranno molte novità, registratevi gratuitamente al forum

Ricordiamo a tutti che su Cultura Digitale non sono presenti nessun file, questo torrent è di proprietà del Corsaro nero. pubblicato sul loro sito al seguente indirizzo: Fear.The.Walking.Dead.S05E03-04.1080p.BDMux.ITA.ENG.x264-BlackBit -

COLLEGAMENTO AL TORRENT

Importante: è un link con magnet, si dovrebbe aprire da solo. Se vi esce errore 404 nel vostro computer non è installato un programma per torrent o l’estensione che fa aprire i file magnet.

 Copiate questo link
magnet:?xt=urn:btih:22ffcdc583c856047ad84775d3801e6296b04df9&dn=Fear.The.Walking.Dead.S05E03-04.1080p.BDMux.ITA.ENG.x264-BlackBit&tr=udp%3A%2F%2Ftracker.coppersurfer.tk%3A6969%2Fannounce

Per firefox usare questa estensione – Per Chrome usare questa estensione
Oppure usare Torxh web browser

Se i link risultassero non raggiungibili o bloccati a livello DNS

Seguite la guida Su Questo Articolo : GUIDA COME CAMBIARE DNS