Gemini Man (2019).720p.H264.ita.eng.Ac3-5.1.multisub-MIRCrew – Torrent download

Ecco a voi il torrent Gemini Man (2019).720p.H264.ita.eng.Ac3-5.1.multisub-MIRCrew - proveniente dagli archivi di Torrent

Lo staff di Cultura digitale al fine di promuovere la cultura condivide i contenuti presenti sul sito il corsaro nero.

Nome del Torrent: Gemini Man (2019).720p.H264.ita.eng.Ac3-5.1.multisub-MIRCrew -

Descrizione del torrent: Gemini Man (2019).720p.H264.ita.eng.Ac3-5.1.multisub-MIRCrewClicca qua per ingrandire questa immagineNO FOUND ONLY ORIGINAL RELEASEMy release is always in double track audio italian and Original audiofor select it use VLC or dvd player homenot use wmp Subtitle inside on this releaseItalian, english, french, spanish, PortugueseGemini Man (2019)Quality MIRCrew on HD 720p da 2,3 gbClicca qua per ingrandire questa immagine Clicca qua per ingrandire questa immagineLingua originale inglesePaese di produzione Stati Uniti d'America, CinaAnno 2019Durata 117 minRapporto WidescreenGenere azione, fantascienza, drammaticoRegia Ang LeeSoggetto storia di Darren Lemke e David BenioffSceneggiatura Billy Ray, Darren Lemke, David BenioffClicca qua per ingrandire questa immagine    Will Smith: Henry Brogen / Junior    Mary Elizabeth Winstead: Danny Zakarewski    Clive Owen: Clayton Clay Verris    Benedict Wong: il barone    Ralph Brown: Del Patterson    Linda Emond: Janet Lassiter    Douglas Hodge: Jack Willis    E. J. Bonilla: Marino    Ilia Volok: Yuri Kovacs    Theodora Miranne: Kitty    Tim Connolly: agente    David Shae: messaggero in bicicletta    Lilla Banak: madre di Henry    Diego Adonye: padre di Henry    Alexandra Szucs: AnikoClicca qua per ingrandire questa immagineHenry Brogan è il miglior agente assassino del governo americano. Dopo una missione in Belgio, nella quale uccide un presunto terrorista, che successivamente scoprirà essere solo un biologo molecolare, decide di ritirarsi dal lavoro e tornare a casa sua in Georgia. Qualche notte dopo viene però raggiunto dagli asset del governo incaricati di ucciderloClicca qua per ingrandire questa immagineA retiring assassin, Henry Brogan, finds himself pursued by a mysterious killer that can predict his every move. Discovering that he's being hunted by a younger clone of himself, Henry needs to find out why he's being targeted and who the creator isClicca qua per ingrandire questa immagine   Clicca qua per ingrandire questa immagineClicca qua per ingrandire questa immagineClicca qua per ingrandire questa immagineClicca qua per ingrandire questa immagineClicca qua per ingrandire questa immagineClicca qua per ingrandire questa immagineClicca qua per ingrandire questa immagineGeneralComplete name                            : Gemini Man (2019).720p.H264.ita.eng.multisub-MIRCrewGemini Man (2019).720p.H264.ita.eng.multisub-MIRCrew-MIRCrew.mkvFormat                                   : MatroskaFormat version                           : Version 2File size                                : 2.37 GiBDuration                                 : 1h 57mnOverall bit rate                         : 2 902 KbpsMovie name                               : robbyrsEncoded date                             : UTC 2020-01-02T19:18:16ZWriting application                      : mkvmerge v5.8.0 ('No Sleep / Pillow' built on Sep  2 2012 15:37:04Writing library                          : Lavf55.12.0VideoID                                       : 1Format                                   : AVCFormat/Info                              : Advanced Video CodecFormat profile                           : [email protected] settings, CABAC                   : YesFormat settings, ReFrames                : 4 framesCodec ID                                 : V_MPEG4/ISO/AVCDuration                                 : 1h 57mnBit rate                                 : 2 000 KbpsWidth                                    : 1 280 pixelsHeight                                   : 688 pixelsDisplay aspect ratio                     : 1.860Frame rate                               : 23.976 fpsColor space                              : YUVChroma subsampling                       : 4:2:0Bit depth                                : 8 bitsScan type                                : ProgressiveBits/(Pixel*Frame)                       : 0.095Stream size                              : 1.59 GiB (67%)Title                                    : robbyrsWriting library                          : x264 core 142 r2479 dd79a61Encoding settings                        : cabac=1 / ref=1 / deblock=1:0:0 / analyse=0x1:0x111 / me=hex / subme=2 / psy=1 / psy_rd=1.00:0.00 / mixed_ref=0 / me_range=16 / chroma_me=1 / trellis=0 / 8x8dct=0 / cqm=0 / deadzone=21,11 / fast_pskip=1 / chroma_qp_offset=0 / threads=9 / lookahead_threads=3 / sliced_threads=0 / nr=0 / decimate=1 / interlaced=0 / bluray_compat=0 / constrained_intra=0 / bframes=3 / b_pyramid=2 / b_adapt=1 / b_bias=0 / direct=1 / weightb=1 / open_gop=0 / weightp=1 / keyint=240 / keyint_min=24 / scenecut=40 / intra_refresh=0 / rc_lookahead=10 / rc=abr / mbtree=1 / bitrate=2000 / ratetol=1.0 / qcomp=0.60 / qpmin=0 / qpmax=69 / qpstep=4 / vbv_maxrate=50000 / vbv_bufsize=62500 / nal_hrd=none / filler=0 / ip_ratio=1.40 / aq=1:1.00Language                                 : ItalianDefault                                  : YesForced                                   : NoColor primaries                          : BT.709-5, BT.1361, IEC 61966-2-4, SMPTE RP177Transfer characteristics                 : BT.709-5, BT.1361Matrix coefficients                      : BT.709-5, BT.1361, IEC 61966-2-4 709, SMPTE RP177Audio #1ID                                       : 2Format                                   : AC-3Format/Info                              : Audio Coding 3Mode extension                           : CM (complete main)Codec ID                                 : A_AC3Duration                                 : 1h 57mnBit rate mode                            : ConstantBit rate                                 : 448 KbpsChannel(s)                               : 6 channelsChannel positions                        : Front: L C R, Side: L R, LFESampling rate                            : 48.0 KHzBit depth                                : 16 bitsCompression mode                         : LossyDelay relative to video                  : -5msStream size                              : 375 MiB (15%)Title                                    : Ita Ac3 5.1Language                                 : ItalianDefault                                  : YesForced                                   : NoAudio #2ID                                       : 3Format                                   : AC-3Format/Info                              : Audio Coding 3Mode extension                           : CM (complete main)Codec ID                                 : A_AC3Duration                                 : 1h 57mnBit rate mode                            : ConstantBit rate                                 : 448 KbpsChannel(s)                               : 6 channelsChannel positions                        : Front: L C R, Side: L R, LFESampling rate                            : 48.0 KHzBit depth                                : 16 bitsCompression mode                         : LossyDelay relative to video                  : -5msStream size                              : 375 MiB (15%)Title                                    : Eng Ac3 5.1Language                                 : EnglishDefault                                  : NoForced                                   : NoMenu00:00:00.000                             : :Capitolo 0100:07:21.774                             : :Capitolo 0200:15:31.805                             : :Capitolo 0300:18:13.258                             : :Capitolo 0400:24:39.644                             : :Capitolo 0500:30:59.566                             : :Capitolo 0600:34:09.547                             : :Capitolo 0700:42:40.432                             : :Capitolo 0800:50:25.063                             : :Capitolo 0900:56:45.902                             : :Capitolo 1001:03:30.431                             : :Capitolo 1101:08:13.255                             : :Capitolo 1201:16:46.059                             : :Capitolo 1301:24:44.120                             : :Capitolo 1401:30:04.857                             : :Capitolo 1501:34:01.052                             : :Capitolo 1601:42:14.586                             : :Capitolo 1701:47:07.754                             : :Capitolo 18

Dimensione: 2.37 GB

Categoria: BDRip

ISCRIVETEVI AL FORUM

Presto ci saranno molte novità, registratevi gratuitamente al forum

Ricordiamo a tutti che su Cultura Digitale non sono presenti nessun file, questo torrent è di proprietà del Corsaro nero. pubblicato sul loro sito al seguente indirizzo: Gemini Man (2019).720p.H264.ita.eng.Ac3-5.1.multisub-MIRCrew -

COLLEGAMENTO AL TORRENT

Importante: è un link con magnet, si dovrebbe aprire da solo. Se vi esce errore 404 nel vostro computer non è installato un programma per torrent o l’estensione che fa aprire i file magnet.

 Copiate questo link
magnet:?xt=urn:btih:e4607b0e150c021155466e280b3ae35ac2385961&dn=Gemini+Man+%282019%29.720p.H264.ita.eng.Ac3-5.1.multisub-MIRCrew&tr=udp%3A%2F%2Ftracker.coppersurfer.tk%3A6969%2Fannounce

Per firefox usare questa estensione – Per Chrome usare questa estensione
Oppure usare Torxh web browser

Se i link risultassero non raggiungibili o bloccati a livello DNS

Seguite la guida Su Questo Articolo : GUIDA COME CAMBIARE DNS