Gemini.Man.2019.iTA-ENG.Bluray.1080p.x265-CYBER.mkv – Torrent download

Ecco a voi il torrent Gemini.Man.2019.iTA-ENG.Bluray.1080p.x265-CYBER.mkv - proveniente dagli archivi di Torrent

Lo staff di Cultura digitale al fine di promuovere la cultura condivide i contenuti presenti sul sito il corsaro nero.

Nome del Torrent: Gemini.Man.2019.iTA-ENG.Bluray.1080p.x265-CYBER.mkv -

Descrizione del torrent: Gemini ManDATIData di uscita: 10 ottobre 2019Genere:Azione, Drammatico, FantascienzaAnno: 2019Regia: Ang LeeAttori: Will Smith, Ilia Volokh, Clive Owen, Mary Elizabeth Winstead, Benedict Wong, Ralph Brown, Linda Emond, Douglas Hodge, Theodora Miranne, E.J. BonillaPaese: USADurata: 117 minDistribuzione: 20th Century Fox ItaliaTRAMAUn assassino di professione diviene l'obiettivo di un misterioso outsider, che lo perseguita e desidera farlo fuori. Scoprirà suo malgrado che si tratta di una versione più giovane di se stesso.IMMAGINIREPORTGeneralUnique ID : 60781333398525333327766948606893005061 (0x2DBA0F1AF6FDFC0F0AFC4A8A4EB29905)Complete name : F:Gemini.Man.2019.iTA-ENG.Bluray.1080p.x265-CYBER.mkvFormat : MatroskaFormat version : Version 2File size : 7.63 GiBDuration : 1 h 57 minOverall bit rate : 9 332 kb/sEncoded date : UTC 2020-01-02 10:29:34Writing application : mkvmerge v33.1.0 ('Primrose' 64-bitWriting library : libebml v1.3.7 + libmatroska v1.5.0VideoID : 1Format : HEVCFormat/Info : High Efficiency Video CodingFormat profile : [email protected]@MainCodec ID : V_MPEGH/ISO/HEVCDuration : 1 h 57 minBit rate : 8 050 kb/sWidth : 1 920 pixelsHeight : 1 040 pixelsDisplay aspect ratio : 1.85:1Frame rate mode : ConstantFrame rate : 23.976 (24000/1001) FPSColor space : YUVChroma subsampling : 4:2:0Bit depth : 8 bitsBits/(Pixel*Frame) : 0.168Stream size : 6.58 GiB (86%)Writing library : x265 3.0_Au+4-dcbec33bfb0f:[Win][GCC][64][C|Y|B|E|R] 8bit+10bit+12bitEncoding settings : cpuid=1111039 / frame-threads=3 / numa-pools=8 / wpp / no-pmode / no-pme / no-psnr / no-ssim / log-level=2 / input-csp=1 / input-res=1920x1040 / interlace=0 / total-frames=168333 / level-idc=0 / high-tier=1 / uhd-bd=0 / ref=5 / no-allow-non-conformance / no-repeat-headers / annexb / no-aud / no-hrd / info / hash=0 / no-temporal-layers / no-open-gop / min-keyint=23 / keyint=250 / gop-lookahead=0 / bframes=4 / b-adapt=2 / b-pyramid / bframe-bias=0 / rc-lookahead=20 / lookahead-slices=6 / scenecut=40 / radl=0 / no-splice / no-intra-refresh / ctu=64 / min-cu-size=8 / no-rect / no-amp / max-tu-size=32 / tu-inter-depth=1 / tu-intra-depth=1 / limit-tu=0 / rdoq-level=0 / dynamic-rd=0.00 / no-ssim-rd / signhide / no-tskip / nr-intra=0 / nr-inter=0 / no-constrained-intra / strong-intra-smoothing / max-merge=2 / limit-refs=3 / no-limit-modes / me=1 / subme=2 / merange=57 / temporal-mvp / weightp / no-weightb / no-analyze-src-pics / deblock=-2:-2 / sao / no-sao-non-deblock / rd=3 / no-early-skip / rskip / no-fast-intra / no-tskip-fast / no-cu-lossless / no-b-intra / no-splitrd-skip / rdpenalty=0 / psy-rd=2.00 / psy-rdoq=0.00 / no-rd-refine / no-lossless / cbqpoffs=0 / crqpoffs=0 / rc=abr / bitrate=8050 / qcomp=0.60 / qpstep=4 / stats-write=0 / stats-read=2 / cplxblur=20.0 / qblur=0.5 / ipratio=1.40 / pbratio=1.30 / aq-mode=2 / aq-strength=1.00 / cutree / zone-count=0 / no-strict-cbr / qg-size=32 / no-rc-grain / qpmax=69 / qpmin=0 / no-const-vbv / sar=1 / overscan=0 / videoformat=5 / range=0 / colorprim=2 / transfer=2 / colormatrix=2 / chromaloc=0 / display-window=0 / max-cll=0,0 / min-luma=0 / max-luma=255 / log2-max-poc-lsb=8 / vui-timing-info / vui-hrd-info / slices=1 / no-opt-qp-pps / no-opt-ref-list-length-pps / no-multi-pass-opt-rps / scenecut-bias=0.05 / no-opt-cu-delta-qp / no-aq-motion / no-hdr / no-hdr-opt / no-dhdr10-opt / no-idr-recovery-sei / analysis-reuse-level=5 / scale-factor=0 / refine-intra=0 / refine-inter=0 / refine-mv=0 / refine-ctu-distortion=0 / no-limit-sao / ctu-info=0 / no-lowpass-dct / refine-analysis-type=0 / copy-pic=1 / max-ausize-factor=1.0 / no-dynamic-refine / no-single-sei / no-hevc-aq / qp-adaptation-range=1.00Language : EnglishDefault : YesForced : NoAudio #1ID : 2Format : AC-3Format/Info : Audio Coding 3Commercial name : Dolby DigitalCodec ID : A_AC3Duration : 1 h 57 minBit rate mode : ConstantBit rate : 640 kb/sChannel(s) : 6 channelsChannel layout : L R C LFE Ls RsSampling rate : 48.0 kHzFrame rate : 31.250 FPS (1536 SPF)Bit depth : 16 bitsCompression mode : LossyStream size : 536 MiB (7%)Language : ItalianService kind : Complete MainDefault : YesForced : NoAudio #2ID : 3Format : AC-3Format/Info : Audio Coding 3Commercial name : Dolby DigitalCodec ID : A_AC3Duration : 1 h 57 minBit rate mode : ConstantBit rate : 640 kb/sChannel(s) : 6 channelsChannel layout : L R C LFE Ls RsSampling rate : 48.0 kHzFrame rate : 31.250 FPS (1536 SPF)Bit depth : 16 bitsCompression mode : LossyStream size : 536 MiB (7%)Language : EnglishService kind : Complete MainDefault : NoForced : NoText #1ID : 4Format : UTF-8Codec ID : S_TEXT/UTF8Codec ID/Info : UTF-8 Plain TextDuration : 1 h 55 minBit rate : 0 b/sCount of elements : 8Stream size : 148 Bytes (0%)Title : FORCEDLanguage : ItalianDefault : YesForced : NoText #2ID : 5Format : UTF-8Codec ID : S_TEXT/UTF8Codec ID/Info : UTF-8 Plain TextDuration : 1 h 55 minBit rate : 45 b/sCount of elements : 1308Stream size : 38.7 KiB (0%)Title : REGOLARILanguage : ItalianDefault : NoForced : NoMenu00:00:00.000 : :Capítulo 0100:07:21.774 : :Capítulo 0200:15:31.805 : :Capítulo 0300:18:13.258 : :Capítulo 0400:24:39.644 : :Capítulo 0500:30:59.566 : :Capítulo 0600:34:09.547 : :Capítulo 0700:42:40.432 : :Capítulo 0800:50:25.063 : :Capítulo 0900:56:45.902 : :Capítulo 1001:03:30.431 : :Capítulo 1101:08:13.255 : :Capítulo 1201:16:46.059 : :Capítulo 1301:24:44.120 : :Capítulo 1401:30:04.857 : :Capítulo 1501:34:01.052 : :Capítulo 1601:42:14.586 : :Capítulo 1701:47:07.754 : :Capítulo 18CREDITI CYBER

Dimensione: 7.63 GB

Categoria: BDRip

ISCRIVETEVI AL FORUM

Presto ci saranno molte novità, registratevi gratuitamente al forum

Ricordiamo a tutti che su Cultura Digitale non sono presenti nessun file, questo torrent è di proprietà del Corsaro nero. pubblicato sul loro sito al seguente indirizzo: Gemini.Man.2019.iTA-ENG.Bluray.1080p.x265-CYBER.mkv -

COLLEGAMENTO AL TORRENT

Importante: è un link con magnet, si dovrebbe aprire da solo. Se vi esce errore 404 nel vostro computer non è installato un programma per torrent o l’estensione che fa aprire i file magnet.

 Copiate questo link
magnet:?xt=urn:btih:e1f74ebf4899556892adb29189ff3f5c3f90fc1d&dn=Gemini.Man.2019.iTA-ENG.Bluray.1080p.x265-CYBER.mkv&tr=udp%3A%2F%2Ftracker.coppersurfer.tk%3A6969%2Fannounce

Per firefox usare questa estensione – Per Chrome usare questa estensione
Oppure usare Torxh web browser

Se i link risultassero non raggiungibili o bloccati a livello DNS

Seguite la guida Su Questo Articolo : GUIDA COME CAMBIARE DNS