– Glitch – S01-03 – [V2] 720p H265 Ita Eng Aac Sub Ita Eng – MultiSource-ZZZ [COMPLETA] – – Torrent dowload

Ecco a voi il torrent – Glitch – S01-03 – [V2] 720p H265 Ita Eng Aac Sub Ita Eng – MultiSource-ZZZ [COMPLETA] – proveniente dagli archivi di [Torrent]

Lo staff di Cultura digitale al fine di promuovere la cultura condivide i contenuti presenti sul sito il corsaro nero.

Nome del Torrent: – Glitch – S01-03 – [V2] 720p H265 Ita Eng Aac Sub Ita Eng – MultiSource-ZZZ [COMPLETA] –

Descrizione del torrent: Glitch (720p – 4.39GB)Grazie a FTE (Stagioni 1-2), ADE (Stagione 3) per l'audio e i sottotitoli in italiano.INFORMAZIONI SERIETitolo originale: GlitchPaese: AustraliaAnno: 2015-2019Formato: serie TVGenere: drammatico, fantasticoStagioni: 3Episodi: 18Durata: 55 min (episodio)Lingua originale: ingleseIMDB:tt4192782INTERPRETI E PERSONAGGIJames Hayes (stagione 1-3), interpretato da Patrick Brammall, doppiato da Francesco Bulckaen.Kate Willis (stagione 1-3), interpretata da Emma Booth, doppiata da Federica De Bortoli.Elishia McKellar (stagione 1-2), interpretata da Genevieve O'Reilly, doppiata da Laura Lenghi.Charlie Thompson (stagione 1-3), interpretato da Sean Keenan, doppiato da Gianluca Crisafi.Kirstie Darrow (stagione 1-3), interpretata da Hannah Monson, doppiata da Gaia Bolognesi.Maria Rose Massola (stagione 1), interpretata da Daniela Farinacci, doppiata da Tiziana Avarista.Paddy Fitzgerald (stagioni 1-2), interpretato da Ned Dennehy, doppiato da Stefano Santerini.Sarah Hayes (stagioni 1-2), interpretata da Emily Barclay, doppiata da Gemma Donati.John Doe / William Blackburn (stagione 1-3), interpretato da Rodger Corser, doppiato da Riccardo Scarafoni.Beau Cooper (stagione 1-3), interpretato da Aaron L. McGrath, doppiato da Alessio De Filippis.Vic Eastley (stagioni 1-2), interpretato da Andrew McFarlane, doppiato da Andrea Lavagnino.[4]Chris Rennox (stagione 1-3), interpretato da John Leary, doppiato da Luigi Ferraro.Owen Nillson (stagione 2-3), interpretato da Luke Arnold, doppiato da Gianluca Cortesi.Phil Holden (stagione 2-3), interpretato da Rob Collins, doppiato da Guido Di Naccio.Nicola Heysen (stagione 2-3), interpretata da Pernilla August, doppiata da Angiola Baggi.Belle Donohue (stagione 3), interpretata da Jessica Faulkner, doppiata da Emanuela Ionica.Tam Chi Wai (stagione 3), interpretato da Harry Tseng, doppiato da Dimitri Winter.TRAMANel cuore della notte, a Yoorana, James ed Elishia, un poliziotto e una dottoressa, si ritrovano faccia a faccia con abitanti della zona tornati misteriosamente in vita; tra questi anche la moglie di James, Kate, morta di cancro due anni prima. I risorti a poco a poco ricordano la loro vita passata ma devono rimanere entro il confine della città, altrimenti moriranno di nuovo e per sempre, come accade all'italo-australiano Carlo Nico, uno dei sette risorti. Kate scopre che il marito si è risposato e la dottoressa Elishia sposta i risorti in una fattoria di sua proprietà per non insospettire Vic, un poliziotto di una città vicina che ha visto le tombe vuote al cimitero e che cerca di capire come e perché quelle persone e non altre siano risorte. Vic ha un incidente d'auto e si risveglia cambiato: vuole trovare i risorti e farli tornare al loro stato naturale. Uccide quindi Maria e cerca di uccidere Paddy ma nel rincorrerlo cade e si frattura una gamba. Elishia lo opera e Vic si riprende molto velocemente, cercando di convincere lo sconosciuto ad uccidere tutti i suoi compagni e a non fidarsi di Elishia perché secondo lui non è chi dice di essere. Il suo tentativo fallisce e James lo uccide, scoprendo che Vic era morto nell'incidente e che si era svegliato con l'anima del tutto mutata. Intanto Sara ha le doglie e dopo il parto viene operata d'urgenza: il dottore che la opera riferisce a James che era praticamente morta ed è tornata in vita. James riceve una chiamata da un suo collega che gli riferisce una cosa sconcertante: la dottoressa Elishia è morta da quattro anni. James e l'amico poliziotto Chris continuano a difendere i risorti, ma sulla scena si affacciano nuovi pericolosi personaggi: Phil Holden è il patrigno di Beau, ha un incidente sulla piattaforma petrolifera in cui lavora, non dovrebbe sopravvivere eppure torna a Yoorana, deciso ad uccidere tutti i risorti. Owen Nillson è il ragazzo di cui s'innamora Kate, decisa a ricostruire la sua vita, ma il comportamento di lui nasconde qualcosa. Infine appare la dottoressa Nicola Heysen, capo di Elishia e della Noregard, l'azienda che ha un misterioso ed inquietante rapporto coi risorti.Glitch.S01.ITA.ENG.720p.NF.WEB-DL.x265-HETeam-ZZZ [v2][spoil]GeneralUnique ID                                : 157352689082000418140493134868607725132 (0x7661068BF893374141C4C06A79A8EE4C)Complete name                            : G:[720p]Glitch [2015-2019] [v2]Glitch.S01.ITA.ENG.720p.NF.WEB-DL.x265-HETeam-ZZZ [v2]Glitch.S01E01.ITA.ENG.720p.NF.WEB-DL.x265-HETeam-ZZZ [v2].mkvFormat                                   : MatroskaFormat version                           : Version 4File size                                : 225 MiBDuration                                 : 53 min 6 sOverall bit rate                         : 591 kb/sEncoded date                             : UTC 2020-10-27 22:19:34Writing application                      : mkvmerge v51.0.0 ('I Wish&#39 64-bitWriting library                          : libebml v1.4.0 + libmatroska v1.6.2VideoID                                       : 1Format                                   : HEVCFormat/Info                              : High Efficiency Video CodingFormat profile                           : [email protected]@MainCodec ID                                 : V_MPEGH/ISO/HEVCDuration                                 : 53 min 6 sBit rate                                 : 461 kb/sWidth                                    : 1 280 pixelsHeight                                   : 720 pixelsDisplay aspect ratio                     : 16:9Frame rate mode                          : ConstantFrame rate                               : 25.000 FPSColor space                              : YUVChroma subsampling                       : 4:2:0 (Type 0)Bit depth                                : 8 bitsBits/(Pixel*Frame)                       : 0.020Stream size                              : 175 MiB (78%)Writing library                          : x265 2.1:[Windows][GCC 5.3.1][64 bit] 8bitEncoding settings                        : wpp / ctu=64 / min-cu-size=8 / max-tu-size=32 / tu-intra-depth=1 / tu-inter-depth=1 / me=3 / subme=5 / merange=57 / no-rect / no-amp / max-merge=3 / temporal-mvp / no-early-skip / rskip / rdpenalty=0 / no-tskip / no-tskip-fast / no-strong-intra-smoothing / no-lossless / no-cu-lossless / no-constrained-intra / no-fast-intra / open-gop / no-temporal-layers / interlace=0 / keyint=250 / min-keyint=23 / scenecut=40 / rc-lookahead=80 / lookahead-slices=0 / bframes=8 / bframe-bias=0 / b-adapt=2 / ref=4 / limit-refs=2 / limit-modes / weightp / weightb / aq-mode=2 / qg-size=32 / aq-strength=1.00 / cbqpoffs=0 / crqpoffs=0 / rd=4 / psy-rd=0.35 / rdoq-level=2 / psy-rdoq=1.00 / log2-max-poc-lsb=8 / no-rd-refine / signhide / deblock=-2:-2 / no-sao / no-sao-non-deblock / b-pyramid / cutree / no-intra-refresh / rc=crf / crf=25.0 / qcomp=0.60 / qpmin=0 / qpmax=69 / qpstep=4 / ipratio=1.40 / pbratio=1.30Default                                  : YesForced                                   : NoColor range                              : LimitedColor primaries                          : BT.709Audio #1ID                                       : 2Format                                   : AAC LCFormat/Info                              : Advanced Audio Codec Low ComplexityCodec ID                                 : A_AAC-2Duration                                 : 52 min 44 sBit rate                                 : 64.4 kb/sChannel(s)                               : 2 channelsChannel layout                           : L RSampling rate                            : 44.1 kHzFrame rate                               : 43.066 FPS (1024 SPF)Compression mode                         : LossyDelay relative to video                  : 1 s 0 msStream size                              : 24.3 MiB (11%)Title                                    : ITALanguage                                 : ItalianDefault                                  : YesForced                                   : NoAudio #2ID                                       : 3Format                                   : AAC LC SBRFormat/Info                              : Advanced Audio Codec Low Complexity with Spectral Band ReplicationCommercial name                          : HE-AACFormat settings                          : ExplicitCodec ID                                 : A_AAC-2Duration                                 : 53 min 6 sBit rate                                 : 64.0 kb/sChannel(s)                               : 2 channelsChannel layout                           : L RSampling rate                            : 48.0 kHzFrame rate                               : 23.438 FPS (2048 SPF)Compression mode                         : LossyDelay relative to video                  : 31 msStream size                              : 24.3 MiB (11%)Title                                    : ENGLanguage                                 : EnglishDefault                                  : NoForced                                   : NoText #1ID                                       : 4Format                                   : UTF-8Codec ID                                 : S_TEXT/UTF8Codec ID/Info                            : UTF-8 Plain TextDuration                                 : 49 min 7 sBit rate                                 : 39 b/sCount of elements                        : 575Stream size                              : 14.2 KiB (0%)Title                                    : ITALanguage                                 : ItalianDefault                                  : NoForced                                   : NoText #2ID                                       : 5Format                                   : UTF-8Codec ID                                 : S_TEXT/UTF8Codec ID/Info                            : UTF-8 Plain TextDuration                                 : 9 s 873 msBit rate                                 : 68 b/sCount of elements                        : 2Stream size                              : 84.0 Bytes (0%)Title                                    : ENGLanguage                                 : EnglishDefault                                  : NoForced                                   : No[/spoil]Glitch.S02.ITA.ENG.720p.NF.WEB-DL.x265-NTb-ZZZ [v2][spoil]GeneralUnique ID                                : 293164289432846772702622731626876467616 (0xDC8D636BD8F74AABFBB701B1AF1779A0)Complete name                            : G:[720p]Glitch [2015-2019] [v2]Glitch.S02.ITA.ENG.720p.NF.WEB-DL.x265-NTb-ZZZ [v2]Glitch.S02E01.ITA.ENG.720p.NF.WEB-DL.x265-NTb-ZZZ [v2].mkvFormat                                   : MatroskaFormat version                           : Version 4File size                                : 263 MiBDuration                                 : 57 min 16 sOverall bit rate                         : 641 kb/sEncoded date                             : UTC 2020-10-28 22:43:07Writing application                      : mkvmerge v51.0.0 ('I Wish&#39 64-bitWriting library                          : libebml v1.4.0 + libmatroska v1.6.2VideoID                                       : 1Format                                   : HEVCFormat/Info                              : High Efficiency Video CodingFormat profile                           : [email protected]@MainCodec ID                                 : V_MPEGH/ISO/HEVCDuration                                 : 57 min 16 sBit rate                                 : 510 kb/sWidth                                    : 1 280 pixelsHeight                                   : 720 pixelsDisplay aspect ratio                     : 16:9Frame rate mode                          : ConstantFrame rate                               : 25.000 FPSColor space                              : YUVChroma subsampling                       : 4:2:0Bit depth                                : 8 bitsBits/(Pixel*Frame)                       : 0.022Stream size                              : 209 MiB (79%)Writing library                          : x265 3.0_Au+4-dcbec33bfb0f:[Windows][GCC 8.2.1][64 bit] 8bit+10bit+12bitEncoding settings                        : cpuid=1111039 / frame-threads=3 / numa-pools=8 / wpp / no-pmode / no-pme / no-psnr / no-ssim / log-level=2 / input-csp=1 / input-res=1280×720 / interlace=0 / total-frames=85909 / level-idc=0 / high-tier=1 / uhd-bd=0 / ref=3 / no-allow-non-conformance / no-repeat-headers / annexb / no-aud / no-hrd / info / hash=0 / no-temporal-layers / open-gop / min-keyint=25 / keyint=250 / gop-lookahead=0 / bframes=4 / b-adapt=2 / b-pyramid / bframe-bias=0 / rc-lookahead=20 / lookahead-slices=4 / scenecut=40 / radl=0 / no-splice / no-intra-refresh / ctu=64 / min-cu-size=8 / no-rect / no-amp / max-tu-size=32 / tu-inter-depth=1 / tu-intra-depth=1 / limit-tu=0 / rdoq-level=0 / dynamic-rd=0.00 / no-ssim-rd / signhide / no-tskip / nr-intra=0 / nr-inter=0 / no-constrained-intra / strong-intra-smoothing / max-merge=2 / limit-refs=3 / no-limit-modes / me=1 / subme=2 / merange=57 / temporal-mvp / weightp / no-weightb / no-analyze-src-pics / deblock=0:0 / sao / no-sao-non-deblock / rd=3 / no-early-skip / rskip / no-fast-intra / no-tskip-fast / no-cu-lossless / no-b-intra / no-splitrd-skip / rdpenalty=0 / psy-rd=2.00 / psy-rdoq=0.00 / no-rd-refine / no-lossless / cbqpoffs=0 / crqpoffs=0 / rc=crf / crf=28.0 / qcomp=0.60 / qpstep=4 / stats-write=0 / stats-read=0 / ipratio=1.40 / pbratio=1.30 / aq-mode=2 / aq-strength=1.00 / cutree / zone-count=0 / no-strict-cbr / qg-size=32 / no-rc-grain / qpmax=69 / qpmin=0 / no-const-vbv / sar=1 / overscan=0 / videoformat=5 / range=0 / colorprim=2 / transfer=2 / colormatrix=2 / chromaloc=0 / display-window=0 / max-cll=0,0 / min-luma=0 / max-luma=255 / log2-max-poc-lsb=8 / vui-timing-info / vui-hrd-info / slices=1 / no-opt-qp-pps / no-opt-ref-list-length-pps / no-multi-pass-opt-rps / scenecut-bias=0.05 / no-opt-cu-delta-qp / no-aq-motion / no-hdr / no-hdr-opt / no-dhdr10-opt / no-idr-recovery-sei / analysis-reuse-level=5 / scale-factor=0 / refine-intra=0 / refine-inter=0 / refine-mv=0 / refine-ctu-distortion=0 / no-limit-sao / ctu-info=0 / no-lowpass-dct / refine-analysis-type=0 / copy-pic=1 / max-ausize-factor=1.0 / no-dynamic-refine / no-single-sei / no-hevc-aq / qp-adaptation-range=1.00Default                                  : YesForced                                   : NoAudio #1ID                                       : 2Format                                   : AAC LCFormat/Info                              : Advanced Audio Codec Low ComplexityCodec ID                                 : A_AAC-2Duration                                 : 57 min 16 sBit rate                                 : 64.4 kb/sChannel(s)                               : 2 channelsChannel layout                           : L RSampling rate                            : 44.1 kHzFrame rate                               : 43.066 FPS (1024 SPF)Compression mode                         : LossyStream size                              : 26.4 MiB (10%)Title                                    : ITALanguage                                 : ItalianDefault                                  : YesForced                                   : NoAudio #2ID                                       : 3Format                                   : AAC LCFormat/Info                              : Advanced Audio Codec Low ComplexityCodec ID                                 : A_AAC-2Duration                                 : 57 min 16 sBit rate                                 : 64.0 kb/sChannel(s)                               : 2 channelsChannel layout                           : L RSampling rate                            : 48.0 kHzFrame rate                               : 46.875 FPS (1024 SPF)Compression mode                         : LossyStream size                              : 26.2 MiB (10%)Title                                    : ENGLanguage                                 : EnglishDefault                                  : NoForced                                   : NoText #1ID                                       : 4Format                                   : UTF-8Codec ID                                 : S_TEXT/UTF8Codec ID/Info                            : UTF-8 Plain TextDuration                                 : 56 min 49 sBit rate                                 : 1 b/sCount of elements                        : 17Stream size                              : 499 Bytes (0%)Title                                    : Italian (forced)Language                                 : ItalianDefault                                  : YesForced                                   : NoText #2ID                                       : 5Format                                   : UTF-8Codec ID                                 : S_TEXT/UTF8Codec ID/Info                            : UTF-8 Plain TextDuration                                 : 56 min 49 sBit rate                                 : 50 b/sCount of elements                        : 673Stream size                              : 20.8 KiB (0%)Title                                    : ITALanguage                                 : ItalianDefault                                  : NoForced                                   : NoText #3ID                                       : 6Format                                   : ASSCodec ID                                 : S_TEXT/ASSCodec ID/Info                            : Advanced Sub Station AlphaDuration                                 : 56 min 13 sBit rate                                 : 91 b/sCount of elements                        : 744Compression mode                         : LosslessStream size                              : 37.8 KiB (0%)Title                                    : ENGLanguage                                 : EnglishDefault                                  : NoForced                                   : No[/spoil]Glitch.S03.ITA.ENG.720p.NF.WEB-DL.x265-NTg-ZZZ [v2][spoil]GeneralUnique ID                                : 6704049791310432771130795536372850852 (0x50B272C97A2293FCF762E79C9E1E0A4)Complete name                            : G:[720p]Glitch [2015-2019] [v2]Glitch.S03.ITA.ENG.720p.NF.WEB-DL.x265-NTg-ZZZ [v2]Glitch.S03E01.ITA.ENG.720p.NF.WEB-DL.x265-NTg-ZZZ [v2].mkvFormat                                   : MatroskaFormat version                           : Version 4File size                                : 204 MiBDuration                                 : 54 min 44 sOverall bit rate                         : 521 kb/sEncoded date                             : UTC 2020-10-28 23:12:56Writing application                      : mkvmerge v51.0.0 ('I Wish&#39 64-bitWriting library                          : libebml v1.4.0 + libmatroska v1.6.2VideoID                                       : 1Format                                   : HEVCFormat/Info                              : High Efficiency Video CodingFormat profile                           : [email protected]@MainCodec ID                                 : V_MPEGH/ISO/HEVCDuration                                 : 54 min 44 sBit rate                                 : 390 kb/sWidth                                    : 1 280 pixelsHeight                                   : 720 pixelsDisplay aspect ratio                     : 16:9Frame rate mode                          : ConstantFrame rate                               : 25.000 FPSColor space                              : YUVChroma subsampling                       : 4:2:0Bit depth                                : 8 bitsBits/(Pixel*Frame)                       : 0.017Stream size                              : 153 MiB (75%)Writing library                          : x265 3.0_Au+4-dcbec33bfb0f:[Windows][GCC 8.2.1][64 bit] 8bit+10bit+12bitEncoding settings                        : cpuid=1049583 / frame-threads=3 / numa-pools=8 / wpp / no-pmode / no-pme / no-psnr / no-ssim / log-level=2 / input-csp=1 / input-res=1280×720 / interlace=0 / total-frames=82109 / level-idc=0 / high-tier=1 / uhd-bd=0 / ref=3 / no-allow-non-conformance / no-repeat-headers / annexb / no-aud / no-hrd / info / hash=0 / no-temporal-layers / open-gop / min-keyint=25 / keyint=250 / gop-lookahead=0 / bframes=4 / b-adapt=2 / b-pyramid / bframe-bias=0 / rc-lookahead=20 / lookahead-slices=4 / scenecut=40 / radl=0 / no-splice / no-intra-refresh / ctu=64 / min-cu-size=8 / no-rect / no-amp / max-tu-size=32 / tu-inter-depth=1 / tu-intra-depth=1 / limit-tu=0 / rdoq-level=0 / dynamic-rd=0.00 / no-ssim-rd / signhide / no-tskip / nr-intra=0 / nr-inter=0 / no-constrained-intra / strong-intra-smoothing / max-merge=2 / limit-refs=3 / no-limit-modes / me=1 / subme=2 / merange=57 / temporal-mvp / weightp / no-weightb / no-analyze-src-pics / deblock=0:0 / sao / no-sao-non-deblock / rd=3 / no-early-skip / rskip / no-fast-intra / no-tskip-fast / no-cu-lossless / no-b-intra / no-splitrd-skip / rdpenalty=0 / psy-rd=2.00 / psy-rdoq=0.00 / no-rd-refine / no-lossless / cbqpoffs=0 / crqpoffs=0 / rc=crf / crf=28.0 / qcomp=0.60 / qpstep=4 / stats-write=0 / stats-read=0 / ipratio=1.40 / pbratio=1.30 / aq-mode=2 / aq-strength=1.00 / cutree / zone-count=0 / no-strict-cbr / qg-size=32 / no-rc-grain / qpmax=69 / qpmin=0 / no-const-vbv / sar=1 / overscan=0 / videoformat=5 / range=0 / colorprim=2 / transfer=2 / colormatrix=2 / chromaloc=0 / display-window=0 / max-cll=0,0 / min-luma=0 / max-luma=255 / log2-max-poc-lsb=8 / vui-timing-info / vui-hrd-info / slices=1 / no-opt-qp-pps / no-opt-ref-list-length-pps / no-multi-pass-opt-rps / scenecut-bias=0.05 / no-opt-cu-delta-qp / no-aq-motion / no-hdr / no-hdr-opt / no-dhdr10-opt / no-idr-recovery-sei / analysis-reuse-level=5 / scale-factor=0 / refine-intra=0 / refine-inter=0 / refine-mv=0 / refine-ctu-distortion=0 / no-limit-sao / ctu-info=0 / no-lowpass-dct / refine-analysis-type=0 / copy-pic=1 / max-ausize-factor=1.0 / no-dynamic-refine / no-single-sei / no-hevc-aq / qp-adaptation-range=1.00Default                                  : YesForced                                   : NoAudio #1ID                                       : 2Format                                   : AAC LCFormat/Info                              : Advanced Audio Codec Low ComplexityCodec ID                                 : A_AAC-2Duration                                 : 54 min 43 sBit rate                                 : 64.0 kb/sChannel(s)                               : 2 channelsChannel layout                           : L RSampling rate                            : 48.0 kHzFrame rate                               : 46.875 FPS (1024 SPF)Compression mode                         : LossyStream size                              : 25.0 MiB (12%)Title                                    : ITALanguage                                 : ItalianDefault                                  : YesForced                                   : NoAudio #2ID                                       : 3Format                                   : AAC LCFormat/Info                              : Advanced Audio Codec Low ComplexityCodec ID                                 : A_AAC-2Duration                                 : 54 min 44 sBit rate                                 : 64.0 kb/sChannel(s)                               : 2 channelsChannel layout                           : L RSampling rate                            : 48.0 kHzFrame rate                               : 46.875 FPS (1024 SPF)Compression mode                         : LossyStream size                              : 25.1 MiB (12%)Title                                    : ENGLanguage                                 : EnglishDefault                                  : NoForced                                   : NoText #1ID                                       : 4Format                                   : UTF-8Codec ID                                 : S_TEXT/UTF8Codec ID/Info                            : UTF-8 Plain TextDuration                                 : 38 min 41 sBit rate                                 : 3 b/sCount of elements                        : 36Stream size                              : 1.09 KiB (0%)Title                                    : Italian (forced)Language                                 : ItalianDefault                                  : YesForced                                   : NoText #2ID                                       : 5Format                                   : ASSCodec ID                                 : S_TEXT/ASSCodec ID/Info                            : Advanced Sub Station AlphaDuration                                 : 52 min 47 sBit rate                                 : 83 b/sCount of elements                        : 698Compression mode                         : LosslessStream size                              : 32.3 KiB (0%)Title                                    : ITALanguage                                 : ItalianDefault                                  : NoForced                                   : NoText #3ID                                       : 6Format                                   : ASSCodec ID                                 : S_TEXT/ASSCodec ID/Info                            : Advanced Sub Station AlphaDuration                                 : 39 min 10 sBit rate                                 : 6 b/sCount of elements                        : 36Compression mode                         : LosslessStream size                              : 1.74 KiB (0%)Title                                    : English (forced)Language                                 : EnglishDefault                                  : NoForced                                   : NoText #4ID                                       : 7Format                                   : ASSCodec ID                                 : S_TEXT/ASSCodec ID/Info                            : Advanced Sub Station AlphaDuration                                 : 52 min 22 sBit rate                                 : 84 b/sCount of elements                        : 695Compression mode                         : LosslessStream size                              : 32.4 KiB (0%)Title                                    : ENGLanguage                                 : EnglishDefault                                  : NoForced                                   : No[/spoil]*** POST  TEMPLATE TAKEN FROM a PIR8 RELEASE ***EN: Please add manually the following trackers in case the download doesn't start.IT: Si prega di aggiungere manualmente i seguenti tracker nel caso in cui il download non inizi.udp://tracker.leechers-paradise.org:6969/announceudp://tracker.internetwarriors.net:1337/announceudp://tracker.opentrackr.org:1337/announceudp://tracker.coppersurfer.tk:6969/announceudp://tracker.pirateparty.gr:6969/announceudp://9.rarbg.to:2730/announceudp://9.rarbg.to:2710/announceudp://bt.xxx-tracker.com:2710/announceudp://tracker.cyberia.is:6969/announceudp://retracker.lanta-net.ru:2710/announceudp://9.rarbg.to:2770/announceudp://9.rarbg.me:2730/announceudp://eddie4.nl:6969/announceudp://tracker.mg64.net:6969/announceudp://open.demonii.si:1337/announceudp://tracker.zer0day.to:1337/announceudp://tracker.tiny-vps.com:6969/announceudp://ipv6.tracker.harry.lu:80/announceudp://9.rarbg.me:2740/announceudp://9.rarbg.me:2770/announceudp://denis.stalker.upeer.me:6969/announceudp://tracker.port443.xyz:6969/announceudp://tracker.moeking.me:6969/announceudp://exodus.desync.com:6969/announceudp://9.rarbg.to:2740/announceudp://9.rarbg.to:2720/announceudp://tracker.justseed.it:1337/announceudp://tracker.torrent.eu.org:451/announceudp://ipv4.tracker.harry.lu:80/announceudp://tracker.open-internet.nl:6969/announceudp://torrentclub.tech:6969/announceudp://open.stealth.si:80/announcehttp://tracker.tfile.co:80/announce

Dimensione:4.40 GB

Categoria: SerieTv

ISCRIVETEVI AL FORUM

Presto ci saranno molte novità, registratevi gratuitamente al forum

Ricordiamo a tutti che su Cultura Digitale non sono presenti nessun file, questo torrent è di proprietà del Corsaro nero. pubblicato sul loro sito al seguente indirizzo: – Glitch – S01-03 – [V2] 720p H265 Ita Eng Aac Sub Ita Eng – MultiSource-ZZZ [COMPLETA] –

COLLEGAMENTO AL TORRENT

Importante: è un link con magnet, si dovrebbe aprire da solo. Se vi esce errore 404 nel vostro computer non è installato un programma per torrent o l’estensione che fa aprire i file magnet.

 Copiate questo link
magnet:?xt=urn:btih:2d74fe6174daa11cc6d9aaff8f1e413a3b266540&dn=Glitch+-+S01-03+-+%5BV2%5D+720p+H265+Ita+Eng+Aac+Sub+Ita+Eng+-+MultiSource-ZZZ+%5BCOMPLETA%5D&tr=udp%3A%2F%2Ftracker.coppersurfer.tk%3A6969%2Fannounce

Per firefox usare questa estensione – Per Chrome usare questa estensione
Oppure usare Torxh web browser

Se i link risultassero non raggiungibili o bloccati a livello DNS

Seguite la guida Su Questo Articolo : GUIDA COME CAMBIARE DNS