Gotham.S03E17-22.1080p.BDRip.ITA.ENG.x264-BlackBit – Torrent download

Ecco a voi il torrent Gotham.S03E17-22.1080p.BDRip.ITA.ENG.x264-BlackBit - proveniente dagli archivi di Torrent

Lo staff di Cultura digitale al fine di promuovere la cultura condivide i contenuti presenti sul sito il corsaro nero.

Nome del Torrent: Gotham.S03E17-22.1080p.BDRip.ITA.ENG.x264-BlackBit -

Descrizione del torrent: Clicca qua per ingrandire questa immagine[size=36pt]Gotham - Stagione 3[/size]Clicca qua per ingrandire questa immagineTitolo originale: GothamPaese: Stati Uniti d'AmericaAnno: 2014 – 2019Formato: Serie TVGenere: Azione, noir, poliziesco, thrillerStagioni: 3Episodi: 22Durata: 42-44 min (episodio)Clicca qua per ingrandire questa immagineSei mesi dopo gli ultimi avvenimenti, Gordon è diventato un cacciatore di taglie che si impegna per rintracciare i metaumani evasi da Indian Hill, tra cui la resuscitata Fish Mooney, che ha reclutato alcuni dei mostri per formare una sua nuova banda. Al contempo Leslie Thompkins torna a Gotham, dopo aver cominciato una relazione con il figlio di Carmine Falcone, Mario. Gordon si ritrova anche coinvolto nelle vicende dello squilibrato ipnotizzatore Jervis Tetch, giunto in città per cercare la sorella scomparsa Alice. Nel frattempo Cobblepot concorre per diventare sindaco di Gotham, riuscendo a vincere le elezioni. Al contempo, mentre Gordon si ricongiunge al GCPD, si scopre il virus del sangue di Alice cambia in peggio le persone che ne entrano in contatto, tra cui Mario e il neo capitano della Polizia Barnes. Come se non bastasse, anche Jerome torna in vita grazie ai seguaci della setta a lui ispirata, e si prepara a compiere la sua vendetta contro la città e Bruce (che ha tentato di uccidere prima di essere "fermato" da Theo), ma viene fermato e re-internato ad Arkham. In seguito Gordon avrà a che fare con la famigerata Corte dei Gufi, che controlla segretamente Gotham e lavora per il multicentenario Ra's al Ghul, Bruce continua il suo allenamento per difendere la città, Oswald e Ivy (la figlia di Mario Pepper) cercano di reclutare un loro esercito di mostri ed Edward, il nuovo medico legale della GCPD, abbraccia il suo nuovo alter-ego criminale: "l'Enigmista". Bruce sotto un'ipnosi si trova in un sotterraneo con Ra's al Ghul , viene trovato da Alfred che accorendo per aiutarlo finisce alcoltellato ma Bruce rinvenendo in se dall'ipnosi lo salva bagnandolo con le acque del Pozzo di Lazzaro , delle acque che hanno un'incredibile effetto curativo : Bruce non è piu sotto l' ipnosi e ha salvato Alfred.Clicca qua per ingrandire questa immagine[spoiler][/spoiler]Clicca qua per ingrandire questa immagine[spoiler]GeneralUnique ID : 28058949505207943612862779308480438310 (0x151BF504E650612CC123BE3F0AF8A026)Complete name : Gotham.S03E01.Il.cacciatore.di.taglie.1080p.BDRip.ITA.ENG.x264-BlackBit.mkvFormat : MatroskaFormat version : Version 4File size : 3.34 GiBDuration : 44 min 7 sOverall bit rate : 10.8 Mb/sEncoded date : UTC 2020-05-17 12:39:17Writing application : mkvmerge v45.0.0 ('Heaven in Pennies' 64-bitWriting library : libebml v1.3.10 + libmatroska v1.5.2 / Lavf58.35.104VideoID : 1Format : AVCFormat/Info : Advanced Video CodecFormat profile : [email protected] settings : CABAC / 4 Ref FramesFormat settings, CABAC : YesFormat settings, Reference frames : 4 framesCodec ID : V_MPEG4/ISO/AVCDuration : 44 min 7 sBit rate : 9 870 kb/sWidth : 1 920 pixelsHeight : 1 080 pixelsDisplay aspect ratio : 16:9Frame rate mode : ConstantFrame rate : 23.976 (24000/1001) FPSColor space : YUVChroma subsampling : 4:2:0Bit depth : 8 bitsScan type : ProgressiveBits/(Pixel*Frame) : 0.199Stream size : 3.04 GiB (91%)Writing library : x264 core 159Encoding settings : cabac=1 / ref=4 / deblock=1:-2:-2 / analyse=0x3:0x133 / me=umh / subme=10 / psy=1 / psy_rd=1.00:0.00 / mixed_ref=1 / me_range=24 / chroma_me=1 / trellis=2 / 8x8dct=1 / cqm=0 / deadzone=6,6 / fast_pskip=1 / chroma_qp_offset=-2 / threads=12 / lookahead_threads=1 / sliced_threads=0 / nr=0 / decimate=0 / interlaced=0 / bluray_compat=0 / constrained_intra=0 / bframes=4 / b_pyramid=2 / b_adapt=2 / b_bias=0 / direct=3 / weightb=1 / open_gop=0 / weightp=2 / keyint=infinite / keyint_min=23 / scenecut=40 / intra_refresh=0 / rc_lookahead=60 / rc=crf / mbtree=1 / crf=19.0 / qcomp=0.80 / qpmin=0 / qpmax=69 / qpstep=4 / ip_ratio=1.10 / aq=3:1.00Default : YesForced : NoColor range : LimitedColor primaries : BT.709Transfer characteristics : BT.709Matrix coefficients : BT.709Audio #1ID : 2Format : AC-3Format/Info : Audio Coding 3Commercial name : Dolby DigitalCodec ID : A_AC3Duration : 44 min 7 sBit rate mode : ConstantBit rate : 192 kb/sChannel(s) : 2 channelsChannel layout : L RSampling rate : 48.0 kHzFrame rate : 31.250 FPS (1536 SPF)Bit depth : 16 bitsCompression mode : LossyStream size : 60.6 MiB (2%)Language : ItalianService kind : Complete MainDefault : YesForced : NoAudio #2ID : 3Format : E-AC-3Format/Info : Enhanced AC-3Commercial name : Dolby Digital PlusCodec ID : A_EAC3Duration : 44 min 7 sBit rate mode : ConstantBit rate : 768 kb/sChannel(s) : 6 channelsChannel layout : L R C LFE Ls RsSampling rate : 48.0 kHzFrame rate : 31.250 FPS (1536 SPF)Compression mode : LossyStream size : 242 MiB (7%)Language : EnglishService kind : Complete MainDefault : NoForced : NoText #1ID : 4Format : UTF-8Codec ID : S_TEXT/UTF8Codec ID/Info : UTF-8 Plain TextDuration : 5 s 923 msBit rate : 51 b/sCount of elements : 2Stream size : 38.0 Bytes (0%)Title : ForcedLanguage : ItalianDefault : YesForced : NoText #2ID : 5Format : UTF-8Codec ID : S_TEXT/UTF8Codec ID/Info : UTF-8 Plain TextDuration : 43 min 9 sBit rate : 65 b/sCount of elements : 628Stream size : 20.7 KiB (0%)Title : SDHLanguage : ItalianDefault : NoForced : NoText #3ID : 6Format : UTF-8Codec ID : S_TEXT/UTF8Codec ID/Info : UTF-8 Plain TextDuration : 43 min 30 sBit rate : 63 b/sCount of elements : 627Stream size : 20.3 KiB (0%)Title : SDHLanguage : EnglishDefault : NoForced : NoMenu00:00:00.000 : en:Chapter 0100:00:49.299 : en:Chapter 0200:03:33.672 : en:Chapter 0300:12:29.415 : en:Chapter 0400:21:14.023 : en:Chapter 0500:28:29.374 : en:Chapter 0600:32:38.748 : en:Chapter 0700:39:10.598 : en:Chapter 0800:43:28.689 : en:Chapter 09[/spoiler]

Dimensione: 23.17 GB

Categoria: SerieTv

ISCRIVETEVI AL FORUM

Presto ci saranno molte novità, registratevi gratuitamente al forum

Ricordiamo a tutti che su Cultura Digitale non sono presenti nessun file, questo torrent è di proprietà del Corsaro nero. pubblicato sul loro sito al seguente indirizzo: Gotham.S03E17-22.1080p.BDRip.ITA.ENG.x264-BlackBit -

COLLEGAMENTO AL TORRENT

Importante: è un link con magnet, si dovrebbe aprire da solo. Se vi esce errore 404 nel vostro computer non è installato un programma per torrent o l’estensione che fa aprire i file magnet.

 Copiate questo link
magnet:?xt=urn:btih:6f20f57b09404ca2cf706dc5cd71544dbc9f4a2a&dn=Gotham.S03E17-22.1080p.BDRip.ITA.ENG.x264-BlackBit&tr=udp%3A%2F%2Ftracker.coppersurfer.tk%3A6969%2Fannounce

Per firefox usare questa estensione – Per Chrome usare questa estensione
Oppure usare Torxh web browser

Se i link risultassero non raggiungibili o bloccati a livello DNS

Seguite la guida Su Questo Articolo : GUIDA COME CAMBIARE DNS