Gotham.S04E12-22.1080p.BDRip.ITA.ENG.x264-BlackBit – Torrent download

Ecco a voi il torrent Gotham.S04E12-22.1080p.BDRip.ITA.ENG.x264-BlackBit - proveniente dagli archivi di Torrent

Lo staff di Cultura digitale al fine di promuovere la cultura condivide i contenuti presenti sul sito il corsaro nero.

Nome del Torrent: Gotham.S04E12-22.1080p.BDRip.ITA.ENG.x264-BlackBit -

Descrizione del torrent: Gotham - Stagione 4itolo originale GothamPaese Stati Uniti d'AmericaAnno 2014-2019Formato serie TVGenere azione, noir, poliziesco, thriller, drammatico, fantasy, fantascienza, supereroiStagioni 4Episodi 22Durata 44 min (episodio)Lingua originale IngleseRapporto 16:9Nella quarta stagione, in seguito al caos provocato dal virus di Tetch, Bruce inizia ad operare per le strade come vigilante mascherato, mentre Pinguino si impegna a dominare il regno criminale della città tramite particolari licenze (pax pinguina). Ed Nygma crede che le sue facoltà mentali siano diminuite notevolmente come effetto collaterale di essere stato congelato nel ghiaccio da Pinguino mentre Barbara Kean torna in vita e si allea con Ra's al Ghul, che prosegue il suo piano che comprende l'impossessarsi di un antico coltello. Butch Gilzean, morto per mano di Barbara, sembra ritornare dal mondo dei morti come uno zombie di nome Solomon Grundy. Un nuovo criminale di nome Professor Pyg mette Gotham nel caos, finché viene rivelato che lavora per conto di Sofia Falcone, figlia di Carmine Falcone, per abbattere Oswald che viene mandato ingiustamente ad Arkham. Dopo che Sofia viene sconfitta Gordon scopre che lei ha ordinato l'omicidio di Carmine Falcone, Jerome Valeska fugge da Arkham con Jonathan Crane e Jervis Tetch, formando con Freeze, Firefly, Pinguino e Grundy una squadra denominata "Legione degli Orribili" con il piano di far impazzire Gotham con un gas esilarante. Tuttavia, Oswald si rivolta contro gli alleati e impedisce che la tossina preparata dai criminali si riversi in città, mentre Jerome viene ucciso in uno scontro con Gordon. Nonostante ciò, Jerome riesce a far impazzire il fratello gemello Jeremiah Valeska, il quale subisce anche una trasformazione in parte fisica. Alleandosi con Ra's Al Ghul, Jeremiah porta allo scollegamento di Gotham City con il mondo esterno, gettando la città nel caos assoluto: solo pochi decidono di restare a combattere, mentre vari criminali e mostri di Indian Hill cominciano a rivendicare il loro territorio. Ra's Al Ghul riacquista il potere che aveva donato a Barbara, tornando però ad essere vulnerabile al pugnale, e Bruce accoltella Ra's, uccidendolo manovrato da Barbara. Bruce inizia a cambiare di personalità.[spoiler[/spoiler[spoilerGeneralUnique ID                                : 51778448046526656482245950692282693614 (0x26F42A9659CB09F653FEE5DC200D77EE)Complete name                            : Gotham.S04E01.Pax.Pinguina.1080p.BDRip.ITA.ENG.x264-BlackBit.mkvFormat                                   : MatroskaFormat version                           : Version 4File size                                : 3.08 GiBDuration                                 : 43 min 32 sOverall bit rate                         : 10.1 Mb/sEncoded date                             : UTC 2020-05-23 12:18:35Writing application                      : mkvmerge v46.0.0 ('No Deeper Escape' 64-bitWriting library                          : libebml v1.3.10 + libmatroska v1.5.2 / Lavf58.35.104VideoID                                       : 1Format                                   : AVCFormat/Info                              : Advanced Video CodecFormat profile                           : [email protected] settings                          : CABAC / 4 Ref FramesFormat settings, CABAC                   : YesFormat settings, Reference frames        : 4 framesCodec ID                                 : V_MPEG4/ISO/AVCDuration                                 : 43 min 6 sBit rate                                 : 9 275 kb/sWidth                                    : 1 920 pixelsHeight                                   : 1 080 pixelsDisplay aspect ratio                     : 16:9Frame rate mode                          : ConstantFrame rate                               : 23.976 (24000/1001) FPSColor space                              : YUVChroma subsampling                       : 4:2:0Bit depth                                : 8 bitsScan type                                : ProgressiveBits/(Pixel*Frame)                       : 0.187Stream size                              : 2.79 GiB (91%)Writing library                          : x264 core 159Encoding settings                        : cabac=1 / ref=4 / deblock=1:-2:-2 / analyse=0x3:0x133 / me=umh / subme=10 / psy=1 / psy_rd=1.00:0.00 / mixed_ref=1 / me_range=24 / chroma_me=1 / trellis=2 / 8x8dct=1 / cqm=0 / deadzone=6,6 / fast_pskip=1 / chroma_qp_offset=-2 / threads=12 / lookahead_threads=1 / sliced_threads=0 / nr=0 / decimate=0 / interlaced=0 / bluray_compat=0 / constrained_intra=0 / bframes=4 / b_pyramid=2 / b_adapt=2 / b_bias=0 / direct=3 / weightb=1 / open_gop=0 / weightp=2 / keyint=infinite / keyint_min=23 / scenecut=40 / intra_refresh=0 / rc_lookahead=60 / rc=crf / mbtree=1 / crf=20.0 / qcomp=0.80 / qpmin=0 / qpmax=69 / qpstep=4 / ip_ratio=1.10 / aq=3:1.00Default                                  : YesForced                                   : NoColor range                              : LimitedColor primaries                          : BT.709Transfer characteristics                 : BT.709Matrix coefficients                      : BT.709Audio #1ID                                       : 2Format                                   : AC-3Format/Info                              : Audio Coding 3Commercial name                          : Dolby DigitalCodec ID                                 : A_AC3Duration                                 : 43 min 6 sBit rate mode                            : ConstantBit rate                                 : 192 kb/sChannel(s)                               : 2 channelsChannel layout                           : L RSampling rate                            : 48.0 kHzFrame rate                               : 31.250 FPS (1536 SPF)Bit depth                                : 16 bitsCompression mode                         : LossyStream size                              : 59.2 MiB (2%)Language                                 : ItalianService kind                             : Complete MainDefault                                  : YesForced                                   : NoAudio #2ID                                       : 3Format                                   : E-AC-3Format/Info                              : Enhanced AC-3Commercial name                          : Dolby Digital PlusCodec ID                                 : A_EAC3Duration                                 : 43 min 6 sBit rate mode                            : ConstantBit rate                                 : 768 kb/sChannel(s)                               : 6 channelsChannel layout                           : L R C LFE Ls RsSampling rate                            : 48.0 kHzFrame rate                               : 31.250 FPS (1536 SPF)Compression mode                         : LossyStream size                              : 237 MiB (8%)Language                                 : EnglishService kind                             : Complete MainDefault                                  : NoForced                                   : NoText #1ID                                       : 4Format                                   : UTF-8Codec ID                                 : S_TEXT/UTF8Codec ID/Info                            : UTF-8 Plain TextDuration                                 : 37 min 15 sBit rate                                 : 0 b/sCount of elements                        : 2Stream size                              : 44.0 Bytes (0%)Title                                    : ForcedLanguage                                 : ItalianDefault                                  : YesForced                                   : NoText #2ID                                       : 5Format                                   : UTF-8Codec ID                                 : S_TEXT/UTF8Codec ID/Info                            : UTF-8 Plain TextDuration                                 : 42 min 16 sBit rate                                 : 73 b/sCount of elements                        : 738Stream size                              : 22.9 KiB (0%)Title                                    : SDHLanguage                                 : ItalianDefault                                  : NoForced                                   : NoText #3ID                                       : 6Format                                   : UTF-8Codec ID                                 : S_TEXT/UTF8Codec ID/Info                            : UTF-8 Plain TextDuration                                 : 43 min 30 sBit rate                                 : 63 b/sCount of elements                        : 627Stream size                              : 20.3 KiB (0%)Title                                    : SDHLanguage                                 : EnglishDefault                                  : NoForced                                   : NoMenu00:00:00.000                             : en:Chapter 0100:01:20.080                             : en:Chapter 0200:03:12.901                             : en:Chapter 0300:09:06.796                             : en:Chapter 0400:14:38.377                             : en:Chapter 0500:19:27.708                             : en:Chapter 0600:28:35.631                             : en:Chapter 0700:34:50.588                             : en:Chapter 0800:42:27.795                             : en:Chapter 09[/spoiler

Dimensione: 29.86 GB

Categoria: SerieTv

ISCRIVETEVI AL FORUM

Presto ci saranno molte novità, registratevi gratuitamente al forum

Ricordiamo a tutti che su Cultura Digitale non sono presenti nessun file, questo torrent è di proprietà del Corsaro nero. pubblicato sul loro sito al seguente indirizzo: Gotham.S04E12-22.1080p.BDRip.ITA.ENG.x264-BlackBit -

COLLEGAMENTO AL TORRENT

Importante: è un link con magnet, si dovrebbe aprire da solo. Se vi esce errore 404 nel vostro computer non è installato un programma per torrent o l’estensione che fa aprire i file magnet.

 Copiate questo link
magnet:?xt=urn:btih:92fa59069b67d1f08eb10ae08228f25b321c94ab&dn=Gotham.S04E12-22.1080p.BDRip.ITA.ENG.x264-BlackBit&tr=udp%3A%2F%2Ftracker.coppersurfer.tk%3A6969%2Fannounce

Per firefox usare questa estensione – Per Chrome usare questa estensione
Oppure usare Torxh web browser

Se i link risultassero non raggiungibili o bloccati a livello DNS

Seguite la guida Su Questo Articolo : GUIDA COME CAMBIARE DNS