– Gretel.E.Hansel.2020.iTA.ENG.AC3.1080p.Bluray.x264-ODS – – Torrent dowload

Ecco a voi il torrent – Gretel.E.Hansel.2020.iTA.ENG.AC3.1080p.Bluray.x264-ODS – proveniente dagli archivi di [Torrent]

Lo staff di Cultura digitale al fine di promuovere la cultura condivide i contenuti presenti sul sito il corsaro nero.

Nome del Torrent: – Gretel.E.Hansel.2020.iTA.ENG.AC3.1080p.Bluray.x264-ODS –

Descrizione del torrent: Clicca qua per ingrandire questa immagine[size=14pt]…::: INFO :::…[/size]Regista: Oz PerkinsGenere: Horror, FantasyAnno: 2020Paese: USADurata: 87 minData di uscita: 19 agosto 2020Distribuzione: Koch Media[size=14pt]…::: TRAMA :::…[/size]Gretel e Hansel, film diretto da Oz Perkins, è un horror ispirato alla famosa fiaba dei fratelli Grimm e ambientato nella Germania medievale devastata dalla miseria e dalla carestia. Un giorno la giovane Gretel (Sophia Lillis) e il fratellino Hansel (Sam Leaky) vengono cacciati di casa dalla madre, che non può più provvedere a loro a causa della povertà dilagante. La ragazza decide di addentrarsi nell'oscuro bosco insieme al fratello alla disperata ricerca di cibo, riparo e lavoro, ma non sa che la foresta è piena di insidie e pericoli mortali. Fortunatamente accorre in loro aiuto un cacciatore (Charles Babalola), che li aiuterà a superare i primi ostacoli che la folta boscaglia presenterà ai due fratelli. Ma mentre sono alla ricerca di cibo nel bosco, incappano in una casa che emana profumo di dolci appena sfornati. Qui abita un'anziana donna, Holda (Alice Krige), che offre ai due pasti, un posto per dormire in cambio di aiuto nei lavori di casa.[size=14pt]…::: SCREENSHOT :::…[/size]Clicca qua per ingrandire questa immagine[youtube]https://www.youtube.com/watch?v=EBx2jdA5mnY[/youtube][size=14pt]…::: DOWNLOAD :::…[/size][sub][/sub] se vuoi replicare e/o esportare una mia release puoi farlo inserendo nei ringraziamenti il nome: oDySSey – ODS[sub] [/sub][spoiler]VideoID                          : 1Format                      : AVCFormat/Info                 : Advanced Video CodecFormat profile              : [email protected] settings             : CABAC / 4 Ref FramesFormat settings, CABAC      : YesFormat settings, Reference  : 4 framesFormat settings, GOP        : M=3, N=24Codec ID                    : V_MPEG4/ISO/AVCDuration                    : 1 h 27 minBit rate mode               : ConstantBit rate                    : 15.2 Mb/sWidth                       : 1 920 pixelsHeight                      : 1 024 pixelsDisplay aspect ratio        : 1.85:1Frame rate mode             : ConstantFrame rate                  : 23.976 (24000/1001) FPSColor space                 : YUVChroma subsampling          : 4:2:0Bit depth                   : 8 bitsScan type                   : ProgressiveBits/(Pixel*Frame)          : 0.322Stream size                 : 9.15 GiB (93%)Language                    : ItalianDefault                     : YesForced                      : YesColor range                 : LimitedColor primaries             : BT.709Transfer characteristics    : BT.709Matrix coefficients         : BT.709Audio #1ID                          : 2Format                      : AC-3Format/Info                 : Audio Coding 3Commercial name             : Dolby DigitalCodec ID                    : A_AC3Duration                    : 1 h 27 minBit rate mode               : ConstantBit rate                    : 448 kb/sChannel(s)                  : 6 channelsChannel layout              : L R C LFE Ls RsSampling rate               : 48.0 kHzFrame rate                  : 31.250 FPS (1536 SPF)Compression mode            : LossyDelay relative to video     : 20 msStream size                 : 280 MiB (3%)Title                       : AC3 5.1 ODSLanguage                    : ItalianService kind                : Complete MainDefault                     : YesForced                      : NoAudio #2ID                          : 3Format                      : AC-3Format/Info                 : Audio Coding 3Commercial name             : Dolby DigitalCodec ID                    : A_AC3Duration                    : 1 h 27 minBit rate mode               : ConstantBit rate                    : 640 kb/sChannel(s)                  : 6 channelsChannel layout              : L R C LFE Ls RsSampling rate               : 48.0 kHzFrame rate                  : 31.250 FPS (1536 SPF)Compression mode            : LossyStream size                 : 400 MiB (4%)Title                       : AC3 EngLanguage                    : EnglishService kind                : Complete MainDefault                     : NoForced                      : NoText #1ID                          : 4Format                      : UTF-8Codec ID                    : S_TEXT/UTF8Codec ID/Info               : UTF-8 Plain TextDuration                    : 1 h 21 minBit rate                    : 41 b/sCount of elements           : 815Stream size                 : 24.6 KiB (0%)Title                       : English-SRTLanguage                    : EnglishDefault                     : NoForced                      : NoText #2ID                          : 5Format                      : UTF-8Codec ID                    : S_TEXT/UTF8Codec ID/Info               : UTF-8 Plain TextDuration                    : 1 h 22 minBit rate                    : 42 b/sCount of elements           : 875Stream size                 : 26.1 KiB (0%)Language                    : ItalianDefault                     : NoForced                      : NoMenu00:00:00.000                : en:Chapter 0100:09:17.139                : en:Chapter 0200:18:36.198                : en:Chapter 0300:28:10.063                : en:Chapter 0400:36:36.068                : en:Chapter 0500:44:25.454                : en:Chapter 0600:54:17.837                : en:Chapter 0701:04:07.468                : en:Chapter 0801:12:41.982                : en:Chapter 0901:22:14.971                : en:Chapter 10[/spoiler]

Dimensione:9.82 GB

Categoria: BDRip

ISCRIVETEVI AL FORUM

Presto ci saranno molte novità, registratevi gratuitamente al forum

Ricordiamo a tutti che su Cultura Digitale non sono presenti nessun file, questo torrent è di proprietà del Corsaro nero. pubblicato sul loro sito al seguente indirizzo: – Gretel.E.Hansel.2020.iTA.ENG.AC3.1080p.Bluray.x264-ODS –

COLLEGAMENTO AL TORRENT

Importante: è un link con magnet, si dovrebbe aprire da solo. Se vi esce errore 404 nel vostro computer non è installato un programma per torrent o l’estensione che fa aprire i file magnet.

 Copiate questo link
magnet:?xt=urn:btih:9a9e76f492aea2c27ae48d80d00f90cba2730c04&dn=Gretel.E.Hansel.2020.iTA.ENG.AC3.1080p.Bluray.x264-ODS&tr=udp%3A%2F%2Ftracker.torrent.eu.org%3A451%2Fannounce

Per firefox usare questa estensione – Per Chrome usare questa estensione
Oppure usare Torxh web browser

Se i link risultassero non raggiungibili o bloccati a livello DNS

Seguite la guida Su Questo Articolo : GUIDA COME CAMBIARE DNS