Guardie e ladri (1951) SD.H264.ITA.ac3_5.1.sub.ita – Torrent download

I Testi di tutte le canzoni del Festival di Sanremo 2020
TUTTE LE CANZONI DI SANREMO 2020

Ecco a voi il torrent Guardie e ladri (1951) SD.H264.ITA.ac3_5.1.sub.ita - proveniente dagli archivi di Torrent

Lo staff di Cultura digitale al fine di promuovere la cultura condivide i contenuti presenti sul sito il corsaro nero.

Nome del Torrent: Guardie e ladri (1951) SD.H264.ITA.ac3_5.1.sub.ita -

Descrizione del torrent: Guardie e ladri è un film del 1951 diretto da Mario Monicelli e Steno. Fu prodotto da Dino De Laurentiis e Carlo Ponti e interpretato da Totò e Aldo Fabrizi. Il film, che s';innestava nella corrente neorealista, è una delle opere più importanti nate dalla collaborazione artistica tra i registi Monicelli e Steno nonché uno dei migliori di Totò, la cui interpretazione è ancora oggi riconosciuta come una delle sue prove attoriali più apprezzate.Il film può essere considerato simbolicamente quello che segna l';addio di Totò al varietà e alla rivista. In effetti nella scena finale, da sottofondo proveniente da un';osteria, vi è proprio la musica della rivista dell';epoca; la canzone suonata è La fioraia del Pincio, un motivo che Anna Magnani cantava nel 1940 in Quando meno te l';aspetti, compagnia Grandi Riviste Totò.Distribuito nelle sale italiane nel novembre del 1951 e presentato in concorso alla 5ª edizione del Festival di Cannes, valse a Piero Tellini il premio per la sceneggiatura e a Totò il Nastro d';argento. Inizialmente ebbe noie dalla censura, tuttavia fu particolarmente acclamato dalla critica dell';epoca che lo giudicò un classico dell';allora nascente filone della commedia all';italiana.Guardie e ladri è stato in seguito inserito, come opera rappresentativa, nella lista dei 100 film italiani da salvare, nata con lo scopo di segnalare 100 pellicole che hanno cambiato la memoria collettiva del Paese tra il 1942 e il 1978.Lingua originale italianoPaese di produzione ItaliaAnno 1951Durata 101 minDati tecnici B/Nrapporto: 1,37:1Genere commedia, drammaticoRegia Mario Monicelli, StenoSoggetto Piero TelliniSceneggiatura Vitaliano Brancati, Ennio Flaiano, Ruggero Maccari, Aldo Fabrizi, Steno, Mario MonicelliProduttore Dino De Laurentiis, Carlo PontiCasa di produzione Ponti-De Laurentiis, Golden FilmDistribuzione in italiano Lux FilmFotografia Mario BavaMontaggio Franco FraticelliMusiche Alessandro CicogniniScenografia Flavio Mogherini [mediahttps://www.youtube.com/watch?v=lil58zuqe_U[/media Esposito e Amilcare imbrogliano un turista americano con la solita patacca e vengono inutilmente inseguiti dal gabbato. I due partecipano in seguito ad una distribuzione di pacchi-dono americani, accompagnati da ragazzi che spacciano per loro figli, e vengono riconosciuti dal presidente del comitato di beneficenza americano, che è appunto il turista gabbato. Esposito scappa, ma viene arrestato dopo un lungo inseguimento dal sergente Bottoni, al quale fugge poi di mano, con uno stratagemma. In seguito alle proteste ufficiali dell';autorevole americano, Bottoni è sospeso dal servizio e perderà il posto se entro tre mesi non rintraccerà il truffatore. Il povero Bottoni nasconde l';accaduto alla propria famiglia, si mette in borghese e comincia la caccia. Scopre la casa di Esposito, ne avvicina la famiglia, fa in modo che suo figlio faccia amicizia col figlio del ladro. Finalmente Bottoni ha l';occasione di arrestare Esposito ma entrambi sono d';accordo nel nascondere la cosa alle rispettive famiglie. Esposito finge di partire per un viaggio, il sergente è riammesso in servizio e si occuperà della famiglia di Esposito, fino al giorno in cui questo potrà tornare dal suo viaggio.    Totò: Ferdinando Esposito    Aldo Fabrizi: Lorenzo Bottoni    Pina Piovani: Donata Esposito    Carlo Delle Piane: Libero Esposito    Ernesto Almirante: Carlo Esposito    Alida Cappellini: Bice Esposito    Gino Leurini: Alfredo Tarantelli    Ave Ninchi: Giovanna Bottoni    Rossana Podestà: Liliana Bottoni    Paolo Modugno: Paolo Bottoni    Aldo Giuffré: Amilcare    Mario Castellani: il tassista    William Tubbs: Mr. Locuzzo    Pietro Carloni: il commissario    Gino Scotti: il vice commissario    Armando Guarnieri: il barbiere    Luciano Bonanni: secondo barbiere    Carlo Mazzarella: presentatore al teatro    Giulio Calì: un mendicante    Ciro Berardi: l';oste[spoiler [/spoiler [spoilerComplete name                            : Guardie e ladri (1951) SD.H264.ITA.ac3_5.1.sub.ita.mkvFormat                                   : MatroskaFormat version                           : Version 4File size                                : 1.56 GiBDuration                                 : 1 h 41 minOverall bit rate                         : 2 206 kb/sMovie name                               : Guardie e ladriEncoded date                             : UTC 2020-02-01 01:52:31Writing application                      : HandBrake 1.2.2 2019062000Writing library                          : Lavf58.20.100ErrorDetectionType                       : Per level 1VideoID                                       : 1Format                                   : AVCFormat/Info                              : Advanced Video CodecFormat profile                           : [email protected] settings                          : CABAC / 4 Ref FramesFormat settings, CABAC                   : YesFormat settings, ReFrames                : 4 framesCodec ID                                 : V_MPEG4/ISO/AVCDuration                                 : 1 h 41 minBit rate                                 : 1 714 kb/sWidth                                    : 718 pixelsHeight                                   : 576 pixelsDisplay aspect ratio                     : 4:3Frame rate mode                          : ConstantFrame rate                               : 25.000 FPSColor space                              : YUVChroma subsampling                       : 4:2:0Bit depth                                : 8 bitsScan type                                : ProgressiveBits/(Pixel*Frame)                       : 0.166Stream size                              : 1.21 GiB (78%)Writing library                          : x264 core 157Encoding settings                        : cabac=1 / ref=3 / deblock=1:0:0 / analyse=0x1:0x111 / me=hex / subme=7 / psy=1 / psy_rd=1,00:0,00 / mixed_ref=1 / me_range=16 / chroma_me=1 / trellis=1 / 8x8dct=0 / cqm=0 / deadzone=21,11 / fast_pskip=1 / chroma_qp_offset=-2 / threads=3 / lookahead_threads=1 / sliced_threads=0 / nr=0 / decimate=1 / interlaced=0 / bluray_compat=0 / constrained_intra=0 / bframes=3 / b_pyramid=2 / b_adapt=1 / b_bias=0 / direct=1 / weightb=1 / open_gop=0 / weightp=2 / keyint=250 / keyint_min=25 / scenecut=40 / intra_refresh=0 / rc_lookahead=40 / rc=crf / mbtree=1 / crf=21,0 / qcomp=0,60 / qpmin=0 / qpmax=69 / qpstep=4 / vbv_maxrate=14000 / vbv_bufsize=14000 / crf_max=0,0 / nal_hrd=none / filler=0 / ip_ratio=1,40 / aq=1:1,00Default                                  : YesForced                                   : NoColor range                              : LimitedColor primaries                          : BT.601 PALTransfer characteristics                 : BT.709Matrix coefficients                      : BT.601DURATION                                 : 01:41:04,045000000AudioID                                       : 2Format                                   : AC-3Format/Info                              : Audio Coding 3Commercial name                          : Dolby DigitalCodec ID                                 : A_AC3Duration                                 : 1 h 41 minBit rate mode                            : ConstantBit rate                                 : 448 kb/sChannel(s)                               : 2 channelsChannel layout                           : L RSampling rate                            : 48.0 kHzFrame rate                               : 31.250 FPS (1536 SPF)Bit depth                                : 16 bitsCompression mode                         : LossyDelay relative to video                  : -85 msStream size                              : 324 MiB (20%)Title                                    : StereoLanguage                                 : ItalianService kind                             : Complete MainDefault                                  : YesForced                                   : NoDURATION                                 : 01:41:04,000000000TextID                                       : 3Format                                   : VobSubCodec ID                                 : S_VOBSUBCodec ID/Info                            : Picture based subtitle format used on DVDsLanguage                                 : ItalianDefault                                  : NoForced                                   : NoDURATION                                 : 01:40:35,800000000Menu00:00:00.080                             : :Chapter 100:07:32.600                             : :Chapter 200:13:50.840                             : :Chapter 300:21:49.880                             : :Chapter 400:25:54.920                             : :Chapter 500:34:21.560                             : :Chapter 600:41:45.320                             : :Chapter 700:46:59.960                             : :Chapter 800:55:33.320                             : :Chapter 901:03:47.600                             : :Chapter 1001:07:14.000                             : :Chapter 1101:13:31.760                             : :Chapter 1201:19:20.000                             : :Chapter 1301:24:00.680                             : :Chapter 1401:29:34.760                             : :Chapter 1501:37:58.520                             : :Chapter 16[/spoiler

Dimensione: 1.56 GB

Categoria: BDRip

ISCRIVETEVI AL FORUM

Presto ci saranno molte novità, registratevi gratuitamente al forum

Ricordiamo a tutti che su Cultura Digitale non sono presenti nessun file, questo torrent è di proprietà del Corsaro nero. pubblicato sul loro sito al seguente indirizzo: Guardie e ladri (1951) SD.H264.ITA.ac3_5.1.sub.ita -

COLLEGAMENTO AL TORRENT

Importante: è un link con magnet, si dovrebbe aprire da solo. Se vi esce errore 404 nel vostro computer non è installato un programma per torrent o l’estensione che fa aprire i file magnet.

 Copiate questo link
magnet:?xt=urn:btih:150c76bfeaa4b98c0ab6257ff1c88ff72769a832&dn=Guardie+e+ladri+%281951%29+SD.H264.ITA.ac3_5.1.sub.ita&tr=udp%3A%2F%2Ftracker.coppersurfer.tk%3A6969%2Fannounce

Per firefox usare questa estensione – Per Chrome usare questa estensione
Oppure usare Torxh web browser

Se i link risultassero non raggiungibili o bloccati a livello DNS

Seguite la guida Su Questo Articolo : GUIDA COME CAMBIARE DNS 

I Testi di tutte le canzoni del Festival di Sanremo 2020
TUTTE LE CANZONI DI SANREMO 2020