– Holidate (2020) ITA-ENG Ac3 5.1 WebRip 1080p H264 [ArMor] – – Torrent dowload

Ecco a voi il torrent – Holidate (2020) ITA-ENG Ac3 5.1 WebRip 1080p H264 [ArMor] – proveniente dagli archivi di [Torrent]

Lo staff di Cultura digitale al fine di promuovere la cultura condivide i contenuti presenti sul sito il corsaro nero.

Nome del Torrent: – Holidate (2020) ITA-ENG Ac3 5.1 WebRip 1080p H264 [ArMor] –

Descrizione del torrent: [center]Clicca qua per ingrandire questa immagineRegista: John WhitesellGenere: Commedia, SentimentaleAnno: 2020Paese: USADurata: 103 minDistribuzione: NetflixClicca qua per ingrandire questa immagineEmma Roberts, Luke Bracey, Kristin Chenoweth, Frances Fisher, Andrew Bachelor, Jessica Capshaw, Manish Dayal, Alex Moffat, Cynthy Wu, Jake ManleyClicca qua per ingrandire questa immagineHolidate, film originale Netflix diretto da John Whitesell, è una commedia romantica che vede protagonisti i due single Sloane (Emma Roberts) e Jackson (Luke Bracey). Entrambi vengono costantemente pressati dai rispettivi familiari perché, ad ogni incontro per le festività, non si presentano mai accompagnati da una “dolce metà”. Come se non bastasse, la madre di Sloane, Elaine (Frances Fisher), approfitta di ogni festa per organizzare un appuntamento al buio alla figlia, che puntualmente termina con un rifiuto da parte della ragazza.Clicca qua per ingrandire questa immagineSloane and Jackson hate being single on holidays where they face constant judgment from their meddling families. So, when these two strangers meet, they pledge to be each other's "holidate" for every festive occasion in the year ahead. Clicca qua per ingrandire questa immagineClicca qua per ingrandire questa immagineGeneralUnique ID                                : 183296002075849890356796446060975616288 (0x89E586A1EF668B68B926C4F52B85F120)Complete name                            : Holidate (2020) ITA-ENG Ac3 5.1 WebRip 1080p H264 [ArMor].mkvFormat                                   : MatroskaFormat version                           : Version 4File size                                : 4.41 GiBDuration                                 : 1 h 44 minOverall bit rate                         : 6 021 kb/sEncoded date                             : UTC 2020-10-28 16:29:16Writing application                      : mkvmerge v15.0.0 ('Duel with the Devil&#39 64-bitWriting library                          : libebml v1.3.5 + libmatroska v1.4.5 / Lavf58.29.100VideoID                                       : 1Format                                   : AVCFormat/Info                              : Advanced Video CodecFormat profile                           : [email protected] settings                          : CABAC / 4 Ref FramesFormat settings, CABAC                   : YesFormat settings, Reference frames        : 4 framesCodec ID                                 : V_MPEG4/ISO/AVCDuration                                 : 1 h 44 minBit rate                                 : 5 124 kb/sWidth                                    : 1 920 pixelsHeight                                   : 960 pixelsDisplay aspect ratio                     : 2.000Frame rate mode                          : ConstantFrame rate                               : 24.000 FPSColor space                              : YUVChroma subsampling                       : 4:2:0Bit depth                                : 8 bitsScan type                                : ProgressiveBits/(Pixel*Frame)                       : 0.116Stream size                              : 3.75 GiB (85%)Writing library                          : x264 core 157 r2935 545de2fEncoding settings                        : cabac=1 / ref=2 / deblock=1:0:0 / analyse=0x1:0x111 / me=hex / subme=6 / psy=1 / psy_rd=1.00:0.00 / mixed_ref=1 / me_range=16 / chroma_me=1 / trellis=1 / 8x8dct=0 / cqm=0 / deadzone=21,11 / fast_pskip=1 / chroma_qp_offset=-2 / threads=18 / lookahead_threads=3 / sliced_threads=0 / nr=0 / decimate=1 / interlaced=0 / bluray_compat=0 / constrained_intra=0 / bframes=3 / b_pyramid=2 / b_adapt=1 / b_bias=0 / direct=1 / weightb=1 / open_gop=0 / weightp=1 / keyint=240 / keyint_min=24 / scenecut=40 / intra_refresh=0 / rc_lookahead=30 / rc=crf / mbtree=1 / crf=20.0 / qcomp=0.60 / qpmin=0 / qpmax=69 / qpstep=4 / vbv_maxrate=20000 / vbv_bufsize=25000 / crf_max=0.0 / nal_hrd=none / filler=0 / ip_ratio=1.40 / aq=1:1.00Default                                  : YesForced                                   : NoColor range                              : LimitedColor primaries                          : BT.709Transfer characteristics                 : BT.709Matrix coefficients                      : BT.709Audio #1ID                                       : 2Format                                   : AC-3Format/Info                              : Audio Coding 3Commercial name                          : Dolby DigitalCodec ID                                 : A_AC3Duration                                 : 1 h 44 minBit rate mode                            : ConstantBit rate                                 : 448 kb/sChannel(s)                               : 6 channelsChannel layout                           : L R C LFE Ls RsSampling rate                            : 48.0 kHzFrame rate                               : 31.250 FPS (1536 SPF)Compression mode                         : LossyStream size                              : 336 MiB (7%)Title                                    : WEBDL EAC3Language                                 : ItalianService kind                             : Complete MainDefault                                  : YesForced                                   : NoAudio #2ID                                       : 3Format                                   : AC-3Format/Info                              : Audio Coding 3Commercial name                          : Dolby DigitalCodec ID                                 : A_AC3Duration                                 : 1 h 44 minBit rate mode                            : ConstantBit rate                                 : 448 kb/sChannel(s)                               : 6 channelsChannel layout                           : L R C LFE Ls RsSampling rate                            : 48.0 kHzFrame rate                               : 31.250 FPS (1536 SPF)Compression mode                         : LossyStream size                              : 336 MiB (7%)Title                                    : EAC3Language                                 : EnglishService kind                             : Complete MainDefault                                  : NoForced                                   : No[/center]Clicca qua per ingrandire questa immagine

Dimensione:4.41 GB

Categoria: BDRip

ISCRIVETEVI AL FORUM

Presto ci saranno molte novità, registratevi gratuitamente al forum

Ricordiamo a tutti che su Cultura Digitale non sono presenti nessun file, questo torrent è di proprietà del Corsaro nero. pubblicato sul loro sito al seguente indirizzo: – Holidate (2020) ITA-ENG Ac3 5.1 WebRip 1080p H264 [ArMor] –

COLLEGAMENTO AL TORRENT

Importante: è un link con magnet, si dovrebbe aprire da solo. Se vi esce errore 404 nel vostro computer non è installato un programma per torrent o l’estensione che fa aprire i file magnet.

 Copiate questo link
magnet:?xt=urn:btih:fa7e1f8742e51cace6d8cdbddeab9d105544a2a0&dn=Holidate+%282020%29+ITA-ENG+Ac3+5.1+WebRip+1080p+H264+%5BArMor%5D&tr=udp%3A%2F%2Ftracker.coppersurfer.tk%3A6969%2Fannounce

Per firefox usare questa estensione – Per Chrome usare questa estensione
Oppure usare Torxh web browser

Se i link risultassero non raggiungibili o bloccati a livello DNS

Seguite la guida Su Questo Articolo : GUIDA COME CAMBIARE DNS