I Simpson S30E01-23 [720p H264 ITA AC3] – Torrent download

Ecco a voi il torrent I Simpson S30E01-23 [720p H264 ITA AC3] - proveniente dagli archivi di Torrent

Lo staff di Cultura digitale al fine di promuovere la cultura condivide i contenuti presenti sul sito il corsaro nero.

Nome del Torrent: I Simpson S30E01-23 [720p H264 ITA AC3] -

Descrizione del torrent: I Simpson - Stagione 30HD 720p da 8,29 GBTitolo originale: The SimpsonsPaese di produzione: Stati Uniti d'AmericaAutore: Matt GroeningMusiche: Alf ClausenStudio: Gracie Films, 20th Century Studios, Film RomanRete: FoxAnno: 17 dicembre 1989 – in corsoEpisodi: 682 (in corso) in 31 stagioniEpisodi stagione: 23Durata ep.: 22 minutiGenere: sitcom, umoristico, satira, commedia, drammaticoLa serie è incentrata sulla famiglia Simpson, composta da Homer, incarnante lo stereotipo dell'americano di classe media, pigro e pasticcione, ma capace di scatti di coraggio ed umanità; dalla moglie Marge, molto gentile e premurosa nei confronti della famiglia; e dai figli Bart, il classico monello combinaguai e disobbediente; Lisa con la sua intelligenza; e la piccola Maggie che non fa altro che tenere il ciuccio. Essi vivono insieme a Springfield, città americana fittizia nella sua costituzione e planimetria, al fine di confondere le idee su quale Springfield sia, con tutti i loro numerosi amici e parenti che appaiono spesso nella serie.GeneralUnique ID                                : 258779737592249389841839371239623584414 (0xC2AF2A20CC4C9D0339D8727886156A9E)Complete name                            : C:1.51MP50N.S30E01-23I.Simpson.30x01.Bart.Non.E.Morto.ITA.720p.H264.mkvFormat                                   : MatroskaFormat version                           : Version 4File size                                : 299 MiBDuration                                 : 19 min 18 sOverall bit rate                         : 2 164 kb/sWriting application                      : Lavf56.36.100Writing library                          : Lavf56.36.100VideoID                                       : 1Format                                   : AVCFormat/Info                              : Advanced Video CodecFormat profile                           : [email protected] settings                          : CABAC / 1 Ref FramesFormat settings, CABAC                   : YesFormat settings, Reference frames        : 1 frameCodec ID                                 : V_MPEG4/ISO/AVCDuration                                 : 19 min 18 sBit rate                                 : 1 993 kb/sWidth                                    : 1 280 pixelsHeight                                   : 720 pixelsDisplay aspect ratio                     : 16:9Frame rate mode                          : ConstantFrame rate                               : 25.000 FPSColor space                              : YUVChroma subsampling                       : 4:2:0Bit depth                                : 8 bitsScan type                                : ProgressiveBits/(Pixel*Frame)                       : 0.086Stream size                              : 275 MiB (92%)Default                                  : YesForced                                   : NoDuration_Source                          : General_DurationAudioID                                       : 2Format                                   : AC-3Format/Info                              : Audio Coding 3Commercial name                          : Dolby DigitalCodec ID                                 : A_AC3Duration                                 : 19 min 18 sBit rate mode                            : ConstantBit rate                                 : 128 kb/sChannel(s)                               : 2 channelsChannel layout                           : L RSampling rate                            : 48.0 kHzFrame rate                               : 31.250 FPS (1536 SPF)Compression mode                         : LossyStream size                              : 17.7 MiB (6%)Service kind                             : Complete MainDefault                                  : YesForced                                   : NoDuration_Source                          : General_Duration Ringraziamenti: AlabastroSeedbox: fino a 10 completi

Dimensione: 8.30 GB

Categoria: SerieTv

ISCRIVETEVI AL FORUM

Presto ci saranno molte novità, registratevi gratuitamente al forum

Ricordiamo a tutti che su Cultura Digitale non sono presenti nessun file, questo torrent è di proprietà del Corsaro nero. pubblicato sul loro sito al seguente indirizzo: I Simpson S30E01-23 [720p H264 ITA AC3] -

COLLEGAMENTO AL TORRENT

Importante: è un link con magnet, si dovrebbe aprire da solo. Se vi esce errore 404 nel vostro computer non è installato un programma per torrent o l’estensione che fa aprire i file magnet.

 Copiate questo link
magnet:?xt=urn:btih:6530743034f819ec32073d50617fe14d16714350&dn=I+Simpson+S30E01-23+%5B720p+-+H264+-+ITA+AC3%5D&tr=udp%3A%2F%2Ftracker.torrent.eu.org%3A451%2Fannounce

Per firefox usare questa estensione – Per Chrome usare questa estensione
Oppure usare Torxh web browser

Se i link risultassero non raggiungibili o bloccati a livello DNS

Seguite la guida Su Questo Articolo : GUIDA COME CAMBIARE DNS