Il piccolo yeti (2019).720p.H264.ita.eng.Ac3-5.1.sub.spa.eng-MIRCrew – Torrent download

I Testi di tutte le canzoni del Festival di Sanremo 2020
TUTTE LE CANZONI DI SANREMO 2020

Ecco a voi il torrent Il piccolo yeti (2019).720p.H264.ita.eng.Ac3-5.1.sub.spa.eng-MIRCrew - proveniente dagli archivi di Torrent

Lo staff di Cultura digitale al fine di promuovere la cultura condivide i contenuti presenti sul sito il corsaro nero.

Nome del Torrent: Il piccolo yeti (2019).720p.H264.ita.eng.Ac3-5.1.sub.spa.eng-MIRCrew -

Descrizione del torrent: Abominable - Il piccolo yeti (2019).720p.H264.ita.eng.Ac3-5.1.sub.spa.eng-MIRCrewNO FOUND ONLY ORIGINAL RELEASEMy release is always in double track audio italian and Original audiofor select it use VLC or dvd player homenot use wmp Il piccolo yeti - Abominable (2019)Quality MIRCrew on HD 720p da 1,9 gb Titolo originale AbominablePaese di produzione Stati Uniti d'AmericaAnno 2019Durata 97 minutiGenere animazioneRegia Jill Culton e Todd WildermanDoppiatori originali    Chloe Bennet: Yi    Albert Tsai: Peng    Tenzing Norgay Trainor: Jin    Eddie Izzard: Burnish    Sarah Paulson: dottoressa Zara    Tsai Chin: Nai Nai    Michelle Wong: madre di Yi    Rich Dietl: comandante GoonDoppiatori italiani    Lavinia Paladino: Yi    Luca Tesei: Peng    Alex Polidori: Jin    Stefano Benassi: Burnish    Ilaria Stagni: dottoressa Zara    Graziella Polesinanti: Nai Nai    Federica De Bortoli: madre di Yi    Carlo Scipioni: comandante GoonUn cucciolo di yeti fugge da un laboratorio in cui era stato imprigionato dopo la cattura. Troverà riparo sul tetto di casa di una ragazzina che, insieme a due amici, affronterà un lungo viaggio pieno di difficoltà e insidie per riportarlo alla sua casa natale, sulla cima del monte Everest. Three teenagers must help a Yeti return to his family while avoiding a wealthy man and a zoologist who want it for their own needs.     GeneralComplete name                            : Il piccolo yeti - Abominable (2019).720p.H264.ita.eng.sub.eng.spa-MIRCrewIl piccolo yeti - Abominable (2019).720p.H264.ita.eng.sub.eng.spa-MIRCrew.mkvFormat                                   : MatroskaFormat version                           : Version 2File size                                : 1.96 GiBDuration                                 : 1h 37mnOverall bit rate                         : 2 885 KbpsMovie name                               : MIRCrewEncoded date                             : UTC 2020-02-04 20:50:30Writing application                      : mkvmerge v5.8.0 ('No Sleep / Pillow' built on Sep  2 2012 15:37:04Writing library                          : Lavf54.63.100COMMENT                                  : MIRCrewVideoID                                       : 1Format                                   : AVCFormat/Info                              : Advanced Video CodecFormat profile                           : [email protected] settings, CABAC                   : YesFormat settings, ReFrames                : 2 framesCodec ID                                 : V_MPEG4/ISO/AVCDuration                                 : 1h 37mnBit rate                                 : 2 000 KbpsWidth                                    : 1 280 pixelsHeight                                   : 688 pixelsDisplay aspect ratio                     : 1.850Frame rate mode                          : VariableFrame rate                               : 23.976 fpsColor space                              : YUVChroma subsampling                       : 4:2:0Bit depth                                : 8 bitsScan type                                : ProgressiveBits/(Pixel*Frame)                       : 0.095Stream size                              : 1.31 GiB (67%)Title                                    : MIRCrewWriting library                          : x264 core 130 r2273Encoding settings                        : cabac=1 / ref=2 / deblock=1:0:0 / analyse=0x1:0x131 / me=hex / subme=7 / psy=1 / psy_rd=1.00:0.00 / mixed_ref=0 / me_range=16 / chroma_me=1 / trellis=1 / 8x8dct=0 / cqm=0 / deadzone=21,11 / fast_pskip=1 / chroma_qp_offset=-2 / threads=9 / lookahead_threads=1 / sliced_threads=0 / nr=0 / decimate=1 / interlaced=0 / bluray_compat=0 / constrained_intra=0 / bframes=3 / b_pyramid=0 / b_adapt=1 / b_bias=0 / direct=3 / weightb=1 / open_gop=0 / weightp=2 / keyint=230 / keyint_min=23 / scenecut=40 / intra_refresh=0 / rc_lookahead=40 / rc=abr / mbtree=1 / bitrate=2000 / ratetol=1.0 / qcomp=0.60 / qpmin=10 / qpmax=69 / qpstep=4 / vbv_maxrate=24000 / vbv_bufsize=24000 / nal_hrd=none / ip_ratio=1.40 / aq=1:1.00Language                                 : InupiaqDefault                                  : YesForced                                   : NoDURATION                                 : 01:37:12.827000000NUMBER_OF_FRAMES                         : 139847NUMBER_OF_BYTES                          : 2165652634_STATISTICS_WRITING_APP                  : mkvmerge v15.0.0 ('Duel with the Devil' 64-bit_STATISTICS_WRITING_DATE_UTC             : 2020-02-03 14:08:56_STATISTICS_TAGS                         : BPS DURATION NUMBER_OF_FRAMES NUMBER_OF_BYTESAudio #1ID                                       : 2Format                                   : AC-3Format/Info                              : Audio Coding 3Mode extension                           : CM (complete main)Codec ID                                 : A_AC3Duration                                 : 1h 37mnBit rate mode                            : ConstantBit rate                                 : 448 KbpsChannel(s)                               : 6 channelsChannel positions                        : Front: L C R, Side: L R, LFESampling rate                            : 48.0 KHzBit depth                                : 16 bitsCompression mode                         : LossyDelay relative to video                  : -5msStream size                              : 312 MiB (16%)Title                                    : Ita Ac3 5.1Language                                 : ItalianDefault                                  : YesForced                                   : NoDURATION                                 : 01:37:12.800000000NUMBER_OF_FRAMES                         : 182275NUMBER_OF_BYTES                          : 326636800_STATISTICS_WRITING_APP                  : mkvmerge v15.0.0 ('Duel with the Devil' 64-bit_STATISTICS_WRITING_DATE_UTC             : 2020-02-03 14:08:56_STATISTICS_TAGS                         : BPS DURATION NUMBER_OF_FRAMES NUMBER_OF_BYTESAudio #2ID                                       : 3Format                                   : AC-3Format/Info                              : Audio Coding 3Mode extension                           : CM (complete main)Codec ID                                 : A_AC3Duration                                 : 1h 37mnBit rate mode                            : ConstantBit rate                                 : 448 KbpsChannel(s)                               : 6 channelsChannel positions                        : Front: L C R, Side: L R, LFESampling rate                            : 48.0 KHzBit depth                                : 16 bitsCompression mode                         : LossyDelay relative to video                  : -5msStream size                              : 312 MiB (16%)Title                                    : Eng Ac3 5.1Language                                 : EnglishDefault                                  : NoForced                                   : NoDURATION                                 : 01:37:12.800000000NUMBER_OF_FRAMES                         : 182275NUMBER_OF_BYTES                          : 326636800_STATISTICS_WRITING_APP                  : mkvmerge v15.0.0 ('Duel with the Devil' 64-bit_STATISTICS_WRITING_DATE_UTC             : 2020-02-03 14:08:56_STATISTICS_TAGS                         : BPS DURATION NUMBER_OF_FRAMES NUMBER_OF_BYTESMenu00:00:00.000                             : :Chapter 100:04:11.835                             : :Chapter 200:09:10.884                             : :Chapter 300:13:42.238                             : :Chapter 400:16:13.598                             : :Chapter 500:21:34.752                             : :Chapter 600:25:02.459                             : :Chapter 700:29:30.435                             : :Chapter 800:33:57.452                             : :Chapter 900:36:43.785                             : :Chapter 1000:41:53.011                             : :Chapter 1100:46:30.705                             : :Chapter 1200:50:42.331                             : :Chapter 1300:56:31.555                             : :Chapter 1401:01:40.530                             : :Chapter 1501:06:33.198                             : :Chapter 1601:11:44.425                             : :Chapter 1701:15:26.355                             : :Chapter 1801:20:41.545                             : :Chapter 1901:26:44.408                             : :Chapter 20

Dimensione: 1.96 GB

Categoria: BDRip

ISCRIVETEVI AL FORUM

Presto ci saranno molte novità, registratevi gratuitamente al forum

Ricordiamo a tutti che su Cultura Digitale non sono presenti nessun file, questo torrent è di proprietà del Corsaro nero. pubblicato sul loro sito al seguente indirizzo: Il piccolo yeti (2019).720p.H264.ita.eng.Ac3-5.1.sub.spa.eng-MIRCrew -

COLLEGAMENTO AL TORRENT

Importante: è un link con magnet, si dovrebbe aprire da solo. Se vi esce errore 404 nel vostro computer non è installato un programma per torrent o l’estensione che fa aprire i file magnet.

 Copiate questo link
magnet:?xt=urn:btih:9984a8ed09de8215fdfb97c1a21526ecacb36b03&dn=Il+piccolo+yeti+%282019%29.720p.H264.ita.eng.Ac3-5.1.sub.spa.eng-MIRCrew&tr=udp%3A%2F%2Ftracker.coppersurfer.tk%3A6969%2Fannounce

Per firefox usare questa estensione – Per Chrome usare questa estensione
Oppure usare Torxh web browser

Se i link risultassero non raggiungibili o bloccati a livello DNS

Seguite la guida Su Questo Articolo : GUIDA COME CAMBIARE DNS 

I Testi di tutte le canzoni del Festival di Sanremo 2020
TUTTE LE CANZONI DI SANREMO 2020