Improvvisamente l.estate scorsa-Suddenly last summer (1959) ITA-ENG Ac3 2.0 BDRip 1080p H264 [ArMor] – Torrent download

Ecco a voi il torrent Improvvisamente l.estate scorsa-Suddenly last summer (1959) ITA-ENG Ac3 2.0 BDRip 1080p H264 [ArMor] - proveniente dagli archivi di Torrent

Lo staff di Cultura digitale al fine di promuovere la cultura condivide i contenuti presenti sul sito il corsaro nero.

Nome del Torrent: Improvvisamente l.estate scorsa-Suddenly last summer (1959) ITA-ENG Ac3 2.0 BDRip 1080p H264 [ArMor] -

Descrizione del torrent: Titolo originale Suddenly, Last SummerPaese di produzione Stati Uniti d'AmericaAnno 1959Durata 114 minGenere drammatico, noirRegia Joseph L. MankiewiczPlot: New Orleans, 1937. La ricca ed eccentrica Mrs. Violet Venable si rivolge alla clinica psichiatrica del dottor Hockstader promettendo un milione di dollari perché venga attuato un trattamento di lobotomia su sua nipote Catherine Holly. La ragazza, attualmente degente in un istituto religioso, ha iniziato a soffrire di disturbi emotivi particolarmente violenti dopo che Sebastian, suo cugino e figlio di Violet, è morto in circostanze oscure durante una vacanza in Spagna alla quale era presente anche lei. Allo scopo viene chiamato uno specialista, il dottor Cukrovicz.A surgeon is assigned the case of a young woman whose aunt wants her lobotomized to cover up a family secret. GeneralUnique ID                                : 250406582166383995203923211027377675444 (0xBC628DB14C1391A2A0CB891B8EBDDCB4)Complete name                            : Improvvisamente l.estate scorsa-Suddenly last summer (1959) ITA-ENG Ac3 2.0 BDRip 1080p H264 [ArMor.mkvFormat                                   : MatroskaFormat version                           : Version 4File size                                : 3.11 GiBDuration                                 : 1 h 54 minOverall bit rate                         : 3 892 kb/sEncoded date                             : UTC 2020-06-25 22:28:57Writing application                      : mkvmerge v15.0.0 ('Duel with the Devil' 64-bitWriting library                          : libebml v1.3.5 + libmatroska v1.4.5 / Lavf58.29.100VideoID                                       : 1Format                                   : AVCFormat/Info                              : Advanced Video CodecFormat profile                           : [email protected] settings                          : CABAC / 4 Ref FramesFormat settings, CABAC                   : YesFormat settings, Reference frames        : 4 framesCodec ID                                 : V_MPEG4/ISO/AVCDuration                                 : 1 h 54 minBit rate                                 : 3 500 kb/sWidth                                    : 1 920 pixelsHeight                                   : 1 040 pixelsDisplay aspect ratio                     : 1.85:1Frame rate mode                          : VariableFrame rate                               : 16.984 FPSColor space                              : YUVChroma subsampling                       : 4:2:0Bit depth                                : 8 bitsScan type                                : ProgressiveBits/(Pixel*Frame)                       : 0.103Stream size                              : 2.80 GiB (90%)Writing library                          : x264 core 157 r2935 545de2fEncoding settings                        : cabac=1 / ref=2 / deblock=1:0:0 / analyse=0x1:0x111 / me=hex / subme=6 / psy=1 / psy_rd=1.00:0.00 / mixed_ref=1 / me_range=16 / chroma_me=1 / trellis=1 / 8x8dct=0 / cqm=0 / deadzone=21,11 / fast_pskip=1 / chroma_qp_offset=-2 / threads=18 / lookahead_threads=3 / sliced_threads=0 / nr=0 / decimate=1 / interlaced=0 / bluray_compat=0 / constrained_intra=0 / bframes=3 / b_pyramid=2 / b_adapt=1 / b_bias=0 / direct=1 / weightb=1 / open_gop=0 / weightp=1 / keyint=240 / keyint_min=24 / scenecut=40 / intra_refresh=0 / rc_lookahead=30 / rc=abr / mbtree=1 / bitrate=3500 / ratetol=1.0 / qcomp=0.60 / qpmin=0 / qpmax=69 / qpstep=4 / vbv_maxrate=50000 / vbv_bufsize=62500 / nal_hrd=none / filler=0 / ip_ratio=1.40 / aq=1:1.00Default                                  : YesForced                                   : NoColor range                              : LimitedColor primaries                          : BT.709Transfer characteristics                 : BT.709Matrix coefficients                      : BT.709Audio #1ID                                       : 2Format                                   : AC-3Format/Info                              : Audio Coding 3Commercial name                          : Dolby DigitalCodec ID                                 : A_AC3Duration                                 : 1 h 54 minBit rate mode                            : ConstantBit rate                                 : 192 kb/sChannel(s)                               : 1 channelChannel layout                           : CSampling rate                            : 48.0 kHzFrame rate                               : 31.250 FPS (1536 SPF)Compression mode                         : LossyStream size                              : 157 MiB (5%)Title                                    : DVDLanguage                                 : ItalianService kind                             : Complete MainDefault                                  : YesForced                                   : NoAudio #2ID                                       : 3Format                                   : AC-3Format/Info                              : Audio Coding 3Commercial name                          : Dolby DigitalCodec ID                                 : A_AC3Duration                                 : 1 h 54 minBit rate mode                            : ConstantBit rate                                 : 192 kb/sChannel(s)                               : 1 channelChannel layout                           : CSampling rate                            : 48.0 kHzFrame rate                               : 31.250 FPS (1536 SPF)Compression mode                         : LossyStream size                              : 157 MiB (5%)Title                                    : MonoLanguage                                 : EnglishService kind                             : Complete MainDefault                                  : NoForced                                   : No

Dimensione: 3.11 GB

Categoria: BDRip

ISCRIVETEVI AL FORUM

Presto ci saranno molte novità, registratevi gratuitamente al forum

Ricordiamo a tutti che su Cultura Digitale non sono presenti nessun file, questo torrent è di proprietà del Corsaro nero. pubblicato sul loro sito al seguente indirizzo: Improvvisamente l.estate scorsa-Suddenly last summer (1959) ITA-ENG Ac3 2.0 BDRip 1080p H264 [ArMor] -

COLLEGAMENTO AL TORRENT

Importante: è un link con magnet, si dovrebbe aprire da solo. Se vi esce errore 404 nel vostro computer non è installato un programma per torrent o l’estensione che fa aprire i file magnet.

 Copiate questo link
magnet:?xt=urn:btih:89afe96652da051611b491bc73ff677885594bd3&dn=Improvvisamente+l.estate+scorsa-Suddenly+last+summer+%281959%29+ITA-ENG+Ac3+2.0+BDRip+1080p+H264+%5BArMor%5D&tr=udp%3A%2F%2Ftracker.coppersurfer.tk%3A6969%2Fannounce

Per firefox usare questa estensione – Per Chrome usare questa estensione
Oppure usare Torxh web browser

Se i link risultassero non raggiungibili o bloccati a livello DNS

Seguite la guida Su Questo Articolo : GUIDA COME CAMBIARE DNS