– In.the.Dark.2019.S02E10-11.1080p.WEBMux.ITA.ENG.x264-BlackBit – – Torrent dowload

Ecco a voi il torrent – In.the.Dark.2019.S02E10-11.1080p.WEBMux.ITA.ENG.x264-BlackBit – proveniente dagli archivi di [Torrent]

Lo staff di Cultura digitale al fine di promuovere la cultura condivide i contenuti presenti sul sito il corsaro nero.

Nome del Torrent: – In.the.Dark.2019.S02E10-11.1080p.WEBMux.ITA.ENG.x264-BlackBit –

Descrizione del torrent: Clicca qua per ingrandire questa immagine[size=36pt]In The Dark – Stagione 2[/size]Clicca qua per ingrandire questa immagineTitolo originale In the DarkPaese Stati Uniti d'AmericaAnno 2019 – in produzioneFormato serie TVGenere commedia drammaticaStagioni 2Episodi 26Durata 42 min (episodio)Lingua originale ingleseRapporto 16:9Clicca qua per ingrandire questa immagineUna irriverente donna cieca di vent'anni, Murphy, si trascina nella vita in una foschia ubriaca. Ha solo due amici: Jess, la sua comprensiva compagna di stanza, e Tyson, un giovane spacciatore che l'ha salvata da una violenta rapina. A passeggio con il suo cane guida, Pretzel, inciampa su un cadavere che dovrebbe essere di Tyson, ma scompare prima che arrivi la polizia. Questi però non sembrano inclini a indagare e Murphy scoraggiata, si aggrappa all'unica cosa che può farla andare avanti: capire cosa è successo al suo amico.[2] Decide di risolvere da sola l'omicidio, gestendo al contempo la sua colorata vita di appuntamenti e il lavoro che odia a "Guiding Hope", una scuola di addestramento per cani guida gestita dai suoi genitori.Clicca qua per ingrandire questa immagine[spoiler]Clicca qua per ingrandire questa immagine[/spoiler]Clicca qua per ingrandire questa immagine[spoiler]GeneralUnique ID : 7020928524979138613154815244895906416 (0x5482E8081DF44D9709E41488589EA70)Complete name : C:UsersAdministratorVideosIn The Dark S02In.the.Dark.2019.S02E01.All.About.the.Benjamin.WEBMux.ITA.ENG.x264-BlackBit.mkvFormat : MatroskaFormat version : Version 4File size : 468 MiBDuration : 42 min 6 sOverall bit rate : 1 552 kb/sEncoded date : UTC 2020-09-13 20:19:16Writing application : mkvmerge v50.0.0 ('Awakenings&#39 64-bitWriting library : libebml v1.4.0 + libmatroska v1.6.2VideoID : 1Format : AVCFormat/Info : Advanced Video CodecFormat profile : [email protected] settings : CABAC / 5 Ref FramesFormat settings, CABAC : YesFormat settings, Reference : 5 framesCodec ID : V_MPEG4/ISO/AVCDuration : 42 min 6 sBit rate : 1 100 kb/sWidth : 720 pixelsHeight : 400 pixelsDisplay aspect ratio : 16:9Frame rate mode : ConstantFrame rate : 23.976 (24000/1001) FPSColor space : YUVChroma subsampling : 4:2:0Bit depth : 8 bitsScan type : ProgressiveBits/(Pixel*Frame) : 0.159Stream size : 332 MiB (71%)Writing library : x264 core 152 r2851M ba24899Encoding settings : cabac=1 / ref=5 / deblock=1:-1:-1 / analyse=0x3:0x113 / me=umh / subme=9 / psy=1 / psy_rd=1.00:0.15 / mixed_ref=1 / me_range=16 / chroma_me=1 / trellis=2 / 8x8dct=1 / cqm=0 / deadzone=21,11 / fast_pskip=1 / chroma_qp_offset=-3 / threads=12 / lookahead_threads=1 / sliced_threads=0 / nr=0 / decimate=1 / interlaced=0 / bluray_compat=0 / constrained_intra=0 / bframes=3 / b_pyramid=2 / b_adapt=2 / b_bias=0 / direct=3 / weightb=1 / open_gop=0 / weightp=2 / keyint=250 / keyint_min=23 / scenecut=40 / intra_refresh=0 / rc_lookahead=50 / rc=abr / mbtree=1 / bitrate=1100 / ratetol=1.0 / qcomp=0.60 / qpmin=0 / qpmax=69 / qpstep=4 / ip_ratio=1.40 / aq=1:1.00Default : YesForced : YesAudio #1ID : 2Format : AC-3Format/Info : Audio Coding 3Commercial name : Dolby DigitalCodec ID : A_AC3Duration : 42 min 6 sBit rate mode : ConstantBit rate : 192 kb/sChannel(s) : 2 channelsChannel layout : L RSampling rate : 48.0 kHzFrame rate : 31.250 FPS (1536 SPF)Compression mode : LossyDelay relative to video : -43 msStream size : 57.8 MiB (12%)Language : ItalianService kind : Complete MainDefault : YesForced : YesAudio #2ID : 3Format : AAC LCFormat/Info : Advanced Audio Codec Low ComplexityCodec ID : A_AAC-2Duration : 42 min 6 sBit rate : 256 kb/sChannel(s) : 2 channelsChannel layout : L RSampling rate : 48.0 kHzFrame rate : 46.875 FPS (1024 SPF)Compression mode : LossyDelay relative to video : -43 msStream size : 77.1 MiB (16%)Language : EnglishDefault : NoForced : NoText #1ID : 4Format : UTF-8Codec ID : S_TEXT/UTF8Codec ID/Info : UTF-8 Plain TextDuration : 2 min 1 sBit rate : 2 b/sCount of elements : 2Stream size : 35.0 Bytes (0%)Language : ItalianDefault : YesForced : YesText #2ID : 5Format : UTF-8Codec ID : S_TEXT/UTF8Codec ID/Info : UTF-8 Plain TextDuration : 41 min 28 sBit rate : 86 b/sCount of elements : 787Stream size : 26.2 KiB (0%)Language : ItalianDefault : NoForced : NoText #3ID : 6Format : UTF-8Codec ID : S_TEXT/UTF8Codec ID/Info : UTF-8 Plain TextDuration : 41 min 35 sBit rate : 86 b/sCount of elements : 888Stream size : 26.5 KiB (0%)Title : SDHLanguage : EnglishDefault : NoForced : No[/spoiler]

Dimensione:5.97 GB

Categoria: SerieTv

ISCRIVETEVI AL FORUM

Presto ci saranno molte novità, registratevi gratuitamente al forum

Ricordiamo a tutti che su Cultura Digitale non sono presenti nessun file, questo torrent è di proprietà del Corsaro nero. pubblicato sul loro sito al seguente indirizzo: – In.the.Dark.2019.S02E10-11.1080p.WEBMux.ITA.ENG.x264-BlackBit –

COLLEGAMENTO AL TORRENT

Importante: è un link con magnet, si dovrebbe aprire da solo. Se vi esce errore 404 nel vostro computer non è installato un programma per torrent o l’estensione che fa aprire i file magnet.

 Copiate questo link
magnet:?xt=urn:btih:3750831589a8a8f3e78d78efa11d37f0dc915da7&dn=In.the.Dark.2019.S02E10-11.1080p.WEBMux.ITA.ENG.x264-BlackBit&tr=udp%3A%2F%2Ftracker.coppersurfer.tk%3A6969%2Fannounce

Per firefox usare questa estensione – Per Chrome usare questa estensione
Oppure usare Torxh web browser

Se i link risultassero non raggiungibili o bloccati a livello DNS

Seguite la guida Su Questo Articolo : GUIDA COME CAMBIARE DNS