Indovina chi viene a cena-Guess who.s coming to dinner (1967) ITA Ac3 2.0-ENG Ac3 5.1 BDRip 1080p H2 – Torrent download

Ecco a voi il torrent Indovina chi viene a cena-Guess who.s coming to dinner (1967) ITA Ac3 2.0-ENG Ac3 5.1 BDRip 1080p H2 - proveniente dagli archivi di Torrent

Lo staff di Cultura digitale al fine di promuovere la cultura condivide i contenuti presenti sul sito il corsaro nero.

Nome del Torrent: Indovina chi viene a cena-Guess who.s coming to dinner (1967) ITA Ac3 2.0-ENG Ac3 5.1 BDRip 1080p H2 -

Descrizione del torrent: Titolo originale Guess Who's Coming to DinnerPaese di produzione Stati Uniti d'AmericaAnno 1967Durata 108 minGenere drammatico, commedia, sentimentaleRegia Stanley KramerPlot: Joanna "Joey" Drayton, una ragazza bianca statunitense, cresciuta in un'agiata famiglia liberal di San Francisco, si innamora di John Prentice, uno stimato medico afroamericano conosciuto dieci giorni prima alle Hawaii.A couple's attitudes are challenged when their daughter introduces them to her African-American fiancé. GeneralUnique ID                                : 237297353175054177392987287979319212773 (0xB285CECD50C9760897F44A45BE15BAE5)Complete name                            : Indovina chi viene a cena-Guess who.s coming to dinner (1967) ITA-ENG Ac3 2.0 BDRip 1080p H264 [ArMor.mkvFormat                                   : MatroskaFormat version                           : Version 4File size                                : 3.13 GiBDuration                                 : 1 h 48 minOverall bit rate                         : 4 141 kb/sEncoded date                             : UTC 2020-06-26 04:22:35Writing application                      : mkvmerge v15.0.0 ('Duel with the Devil' 64-bitWriting library                          : libebml v1.3.5 + libmatroska v1.4.5 / Lavf58.29.100VideoID                                       : 1Format                                   : AVCFormat/Info                              : Advanced Video CodecFormat profile                           : [email protected] settings                          : CABAC / 4 Ref FramesFormat settings, CABAC                   : YesFormat settings, Reference frames        : 4 framesCodec ID                                 : V_MPEG4/ISO/AVCDuration                                 : 1 h 48 minBit rate                                 : 3 500 kb/sWidth                                    : 1 920 pixelsHeight                                   : 1 040 pixelsDisplay aspect ratio                     : 1.85:1Frame rate mode                          : ConstantFrame rate                               : 23.976 (24000/1001) FPSColor space                              : YUVChroma subsampling                       : 4:2:0Bit depth                                : 8 bitsScan type                                : ProgressiveBits/(Pixel*Frame)                       : 0.073Stream size                              : 2.64 GiB (84%)Writing library                          : x264 core 157 r2935 545de2fEncoding settings                        : cabac=1 / ref=2 / deblock=1:0:0 / analyse=0x1:0x111 / me=hex / subme=6 / psy=1 / psy_rd=1.00:0.00 / mixed_ref=1 / me_range=16 / chroma_me=1 / trellis=1 / 8x8dct=0 / cqm=0 / deadzone=21,11 / fast_pskip=1 / chroma_qp_offset=-2 / threads=18 / lookahead_threads=3 / sliced_threads=0 / nr=0 / decimate=1 / interlaced=0 / bluray_compat=0 / constrained_intra=0 / bframes=3 / b_pyramid=2 / b_adapt=1 / b_bias=0 / direct=1 / weightb=1 / open_gop=0 / weightp=1 / keyint=240 / keyint_min=24 / scenecut=40 / intra_refresh=0 / rc_lookahead=30 / rc=abr / mbtree=1 / bitrate=3500 / ratetol=1.0 / qcomp=0.60 / qpmin=0 / qpmax=69 / qpstep=4 / vbv_maxrate=50000 / vbv_bufsize=62500 / nal_hrd=none / filler=0 / ip_ratio=1.40 / aq=1:1.00Default                                  : YesForced                                   : NoColor range                              : LimitedColor primaries                          : BT.709Transfer characteristics                 : BT.709Matrix coefficients                      : BT.709Audio #1ID                                       : 2Format                                   : AC-3Format/Info                              : Audio Coding 3Commercial name                          : Dolby DigitalCodec ID                                 : A_AC3Duration                                 : 1 h 48 minBit rate mode                            : ConstantBit rate                                 : 192 kb/sChannel(s)                               : 2 channelsChannel layout                           : L RSampling rate                            : 48.0 kHzFrame rate                               : 31.250 FPS (1536 SPF)Compression mode                         : LossyStream size                              : 149 MiB (5%)Title                                    : DVDLanguage                                 : ItalianService kind                             : Complete MainDefault                                  : YesForced                                   : NoAudio #2ID                                       : 3Format                                   : AC-3Format/Info                              : Audio Coding 3Commercial name                          : Dolby DigitalCodec ID                                 : A_AC3Duration                                 : 1 h 48 minBit rate mode                            : ConstantBit rate                                 : 448 kb/sChannel(s)                               : 6 channelsChannel layout                           : L R C LFE Ls RsSampling rate                            : 48.0 kHzFrame rate                               : 31.250 FPS (1536 SPF)Compression mode                         : LossyStream size                              : 347 MiB (11%)Title                                    : DTSLanguage                                 : EnglishService kind                             : Complete MainDefault                                  : NoForced                                   : No

Dimensione: 3.13 GB

Categoria: BDRip

ISCRIVETEVI AL FORUM

Presto ci saranno molte novità, registratevi gratuitamente al forum

Ricordiamo a tutti che su Cultura Digitale non sono presenti nessun file, questo torrent è di proprietà del Corsaro nero. pubblicato sul loro sito al seguente indirizzo: Indovina chi viene a cena-Guess who.s coming to dinner (1967) ITA Ac3 2.0-ENG Ac3 5.1 BDRip 1080p H2 -

COLLEGAMENTO AL TORRENT

Importante: è un link con magnet, si dovrebbe aprire da solo. Se vi esce errore 404 nel vostro computer non è installato un programma per torrent o l’estensione che fa aprire i file magnet.

 Copiate questo link
magnet:?xt=urn:btih:fdc59ebb114a3a2891330269081584dff85d3ad0&dn=Indovina+chi+viene+a+cena-Guess+who.s+coming+to+dinner+%281967%29+ITA+Ac3+2.0-ENG+Ac3+5.1+BDRip+1080p+H2&tr=udp%3A%2F%2Ftracker.coppersurfer.tk%3A6969%2Fannounce

Per firefox usare questa estensione – Per Chrome usare questa estensione
Oppure usare Torxh web browser

Se i link risultassero non raggiungibili o bloccati a livello DNS

Seguite la guida Su Questo Articolo : GUIDA COME CAMBIARE DNS