– Ipcress-The ipcress file (1965) ITA-ENG Ac3 5.1 BDRip 1080p H264 [ArMor] – – Torrent dowload

Ecco a voi il torrent – Ipcress-The ipcress file (1965) ITA-ENG Ac3 5.1 BDRip 1080p H264 [ArMor] – proveniente dagli archivi di [Torrent]

Lo staff di Cultura digitale al fine di promuovere la cultura condivide i contenuti presenti sul sito il corsaro nero.

Nome del Torrent: – Ipcress-The ipcress file (1965) ITA-ENG Ac3 5.1 BDRip 1080p H264 [ArMor] –

Descrizione del torrent: [center]Clicca qua per ingrandire questa immagineRegista: Sidney J. FurieGenere: ThrillerAnno: 1965Paese: Gran BretagnaDurata: 106 minDistribuzione: RANKClicca qua per ingrandire questa immagineMichael Caine, Nigel Green, Guy Doleman, Sue Lloyd, Gordon Jackson, Oliver MacGreevy, Aubrey Richards, Frank Gatliff, Freda Bamford, Thomas BaptisteClicca qua per ingrandire questa immagineHarry, costretto ad entrare nel Servizio Segreto per sfuggire ad una severa punizione, inizia con riluttanza il suo lavoro prima alle dipendenze di Ross e poi sotto il piu' conciliante Dalby. Suo compito è scoprire se due scienziati scomparsi sono fuggiti, tradendo il proprio paese, oppure se sono stati rapiti e portati oltre cortina.Clicca qua per ingrandire questa immagineIn London, a counter espionage Agent deals with his own bureaucracy while investigating the kidnapping and brainwashing of British scientists. Clicca qua per ingrandire questa immagineClicca qua per ingrandire questa immagineGeneralUnique ID                                : 184750946441840106688397640184959802126 (0x8AFDBCED9BD8E87FA4993574AFF31B0E)Complete name                            : Ipcress-The ipcress file (1965) ITA-ENG Ac3 5.1 BDRip 1080p H264 [ArMor].mkvFormat                                   : MatroskaFormat version                           : Version 4File size                                : 5.01 GiBDuration                                 : 1 h 47 minOverall bit rate                         : 6 663 kb/sEncoded date                             : UTC 2020-10-28 13:22:02Writing application                      : mkvmerge v15.0.0 ('Duel with the Devil&#39 64-bitWriting library                          : libebml v1.3.5 + libmatroska v1.4.5 / Lavf58.29.100VideoID                                       : 1Format                                   : AVCFormat/Info                              : Advanced Video CodecFormat profile                           : [email protected] settings                          : CABAC / 4 Ref FramesFormat settings, CABAC                   : YesFormat settings, Reference frames        : 4 framesCodec ID                                 : V_MPEG4/ISO/AVCDuration                                 : 1 h 47 minBit rate                                 : 6 022 kb/sWidth                                    : 1 920 pixelsHeight                                   : 816 pixelsDisplay aspect ratio                     : 2.35:1Frame rate mode                          : ConstantFrame rate                               : 24.000 FPSColor space                              : YUVChroma subsampling                       : 4:2:0Bit depth                                : 8 bitsScan type                                : ProgressiveBits/(Pixel*Frame)                       : 0.160Stream size                              : 4.53 GiB (90%)Writing library                          : x264 core 157 r2935 545de2fEncoding settings                        : cabac=1 / ref=2 / deblock=1:0:0 / analyse=0x1:0x111 / me=hex / subme=6 / psy=1 / psy_rd=1.00:0.00 / mixed_ref=1 / me_range=16 / chroma_me=1 / trellis=1 / 8x8dct=0 / cqm=0 / deadzone=21,11 / fast_pskip=1 / chroma_qp_offset=-2 / threads=18 / lookahead_threads=3 / sliced_threads=0 / nr=0 / decimate=1 / interlaced=0 / bluray_compat=0 / constrained_intra=0 / bframes=3 / b_pyramid=2 / b_adapt=1 / b_bias=0 / direct=1 / weightb=1 / open_gop=0 / weightp=1 / keyint=240 / keyint_min=24 / scenecut=40 / intra_refresh=0 / rc_lookahead=30 / rc=crf / mbtree=1 / crf=20.0 / qcomp=0.60 / qpmin=0 / qpmax=69 / qpstep=4 / vbv_maxrate=20000 / vbv_bufsize=25000 / crf_max=0.0 / nal_hrd=none / filler=0 / ip_ratio=1.40 / aq=1:1.00Default                                  : YesForced                                   : NoColor range                              : LimitedColor primaries                          : BT.709Transfer characteristics                 : BT.709Matrix coefficients                      : BT.709Audio #1ID                                       : 2Format                                   : AC-3Format/Info                              : Audio Coding 3Commercial name                          : Dolby DigitalCodec ID                                 : A_AC3Duration                                 : 1 h 47 minBit rate mode                            : ConstantBit rate                                 : 448 kb/sChannel(s)                               : 6 channelsChannel layout                           : L R C LFE Ls RsSampling rate                            : 48.0 kHzFrame rate                               : 31.250 FPS (1536 SPF)Compression mode                         : LossyStream size                              : 345 MiB (7%)Title                                    : SurroundLanguage                                 : ItalianService kind                             : Complete MainDefault                                  : YesForced                                   : NoAudio #2ID                                       : 3Format                                   : AC-3Format/Info                              : Audio Coding 3Commercial name                          : Dolby DigitalCodec ID                                 : A_AC3Duration                                 : 1 h 47 minBit rate mode                            : ConstantBit rate                                 : 192 kb/sChannel(s)                               : 2 channelsChannel layout                           : L RSampling rate                            : 48.0 kHzFrame rate                               : 31.250 FPS (1536 SPF)Compression mode                         : LossyStream size                              : 148 MiB (3%)Title                                    : StereoLanguage                                 : EnglishService kind                             : Complete MainDefault                                  : NoForced                                   : No[/center]Clicca qua per ingrandire questa immagine

Dimensione:5.01 GB

Categoria: BDRip

ISCRIVETEVI AL FORUM

Presto ci saranno molte novità, registratevi gratuitamente al forum

Ricordiamo a tutti che su Cultura Digitale non sono presenti nessun file, questo torrent è di proprietà del Corsaro nero. pubblicato sul loro sito al seguente indirizzo: – Ipcress-The ipcress file (1965) ITA-ENG Ac3 5.1 BDRip 1080p H264 [ArMor] –

COLLEGAMENTO AL TORRENT

Importante: è un link con magnet, si dovrebbe aprire da solo. Se vi esce errore 404 nel vostro computer non è installato un programma per torrent o l’estensione che fa aprire i file magnet.

 Copiate questo link
magnet:?xt=urn:btih:cae84a6f1fc61ac0c790771c46f8b55ad9f7cf68&dn=Ipcress-The+ipcress+file+%281965%29+ITA-ENG+Ac3+5.1+BDRip+1080p+H264+%5BArMor%5D&tr=udp%3A%2F%2Ftracker.coppersurfer.tk%3A6969%2Fannounce

Per firefox usare questa estensione – Per Chrome usare questa estensione
Oppure usare Torxh web browser

Se i link risultassero non raggiungibili o bloccati a livello DNS

Seguite la guida Su Questo Articolo : GUIDA COME CAMBIARE DNS