Kill Switch la guerra dei mondi (2017).1080.H264.ita.eng.Ac3-5.1.sub.ita.eng-MIRCrew – Torrent download

Ecco a voi il torrent Kill Switch la guerra dei mondi (2017).1080.H264.ita.eng.Ac3-5.1.sub.ita.eng-MIRCrew - proveniente dagli archivi di Torrent

Lo staff di Cultura digitale al fine di promuovere la cultura condivide i contenuti presenti sul sito il corsaro nero.

Nome del Torrent: Kill Switch la guerra dei mondi (2017).1080.H264.ita.eng.Ac3-5.1.sub.ita.eng-MIRCrew -

Descrizione del torrent: Kill Switch - la guerra dei mondi (2017).1080.H264.ita.eng.Ac3-5.1.sub.ita.eng-MIRCrewClicca qua per ingrandire questa immagineNO FOUND ONLY ORIGINAL RELEASEMy release is always in double track audio italian and Original audiofor select it use VLC or dvd player homenot use wmp Kill Switch - la guerra dei mondi (2017)Quality MIRCrew on HD 1080p da 2,1 gbClicca qua per ingrandire questa immagine Clicca qua per ingrandire questa immagineRegista: Tim SmitGenere: Azione, Fantascienza, ThrillerAnno: 2017Paese: Olanda, Germania, USADurata: 91 minSceneggiatura: Charlie Kindinger, Omid NooshinFotografia: Jacco van ReeMontaggio: Wouter van LuijnMusiche: Dries Bijlsma, Rob PetersClicca qua per ingrandire questa immagineDan Stevens, Bérénice Marlohe, Mike Reus, Tygo Gernandt, Charity Wakefield, Kasper van Groesen, Mike LibanonClicca qua per ingrandire questa immagineIn futuro non troppo lontano, una nota società energetica ha creato Echo, un mondo parallelo da cui si può ottenere energia pura e illimitata attraverso un dispositivo chiamato torre. Will, alla ricerca disperata di denaro, finisce per essere assunto dalla misteriosa Alterplex Energy Corporation.Clicca qua per ingrandire questa immagineA pilot battles to save his family and the planet after an experiment for unlimited energy goes wrong. Clicca qua per ingrandire questa immagine   Clicca qua per ingrandire questa immagine Clicca qua per ingrandire questa immagine Clicca qua per ingrandire questa immagine Clicca qua per ingrandire questa immagine Clicca qua per ingrandire questa immagine Clicca qua per ingrandire questa immagineClicca qua per ingrandire questa immagineGeneralComplete name                            : Kill Switch - la guerra dei mondi (2017).1080p.ita.eng.sub.ita-MIRCrewKill Switch - la guerra dei mondi (2017).1080p.ita.eng.sub.ita-MIRCrew.mkvFormat                                   : MatroskaFormat version                           : Version 2File size                                : 2.18 GiBDuration                                 : 1h 31mnOverall bit rate                         : 3 423 KbpsMovie name                               : robbyrsEncoded date                             : UTC 2019-03-08 17:04:03Writing application                      : mkvmerge v5.8.0 ('No Sleep / Pillow' built on Sep  2 2012 15:37:04Writing library                          : Lavf54.63.100COMMENT                                  : robbyrsCOPYRIGHT                                : robbyrsVideoID                                       : 1Format                                   : AVCFormat/Info                              : Advanced Video CodecFormat profile                           : [email protected] settings, CABAC                   : YesFormat settings, ReFrames                : 2 framesCodec ID                                 : V_MPEG4/ISO/AVCDuration                                 : 1h 31mnBit rate                                 : 2 459 KbpsNominal bit rate                         : 2 600 KbpsWidth                                    : 1 920 pixelsHeight                                   : 800 pixelsDisplay aspect ratio                     : 2.40:1Frame rate mode                          : VariableFrame rate                               : 24.000 fpsColor space                              : YUVChroma subsampling                       : 4:2:0Bit depth                                : 8 bitsScan type                                : ProgressiveBits/(Pixel*Frame)                       : 0.067Stream size                              : 1.57 GiB (72%)Title                                    : robbyrsWriting library                          : x264 core 130 r2273Encoding settings                        : cabac=1 / ref=2 / deblock=1:0:0 / analyse=0x1:0x131 / me=hex / subme=7 / psy=1 / psy_rd=1.00:0.00 / mixed_ref=0 / me_range=16 / chroma_me=1 / trellis=1 / 8x8dct=0 / cqm=0 / deadzone=21,11 / fast_pskip=1 / chroma_qp_offset=-2 / threads=9 / lookahead_threads=1 / sliced_threads=0 / nr=0 / decimate=1 / interlaced=0 / bluray_compat=0 / constrained_intra=0 / bframes=3 / b_pyramid=0 / b_adapt=1 / b_bias=0 / direct=3 / weightb=1 / open_gop=0 / weightp=2 / keyint=240 / keyint_min=24 / scenecut=40 / intra_refresh=0 / rc_lookahead=40 / rc=abr / mbtree=1 / bitrate=2600 / ratetol=1.0 / qcomp=0.60 / qpmin=10 / qpmax=69 / qpstep=4 / vbv_maxrate=24000 / vbv_bufsize=24000 / nal_hrd=none / ip_ratio=1.40 / aq=1:1.00Language                                 : ItalianDefault                                  : YesForced                                   : NoAudio #1ID                                       : 2Format                                   : AC-3Format/Info                              : Audio Coding 3Mode extension                           : CM (complete main)Codec ID                                 : A_AC3Duration                                 : 1h 31mnBit rate mode                            : ConstantBit rate                                 : 448 KbpsChannel(s)                               : 6 channelsChannel positions                        : Front: L C R, Side: L R, LFESampling rate                            : 48.0 KHzBit depth                                : 16 bitsCompression mode                         : LossyDelay relative to video                  : -5msStream size                              : 293 MiB (13%)Title                                    : Ita Ac3 5.1Language                                 : ItalianDefault                                  : NoForced                                   : NoAudio #2ID                                       : 3Format                                   : AC-3Format/Info                              : Audio Coding 3Mode extension                           : CM (complete main)Codec ID                                 : A_AC3Duration                                 : 1h 31mnBit rate mode                            : ConstantBit rate                                 : 448 KbpsChannel(s)                               : 6 channelsChannel positions                        : Front: L C R, Side: L R, LFESampling rate                            : 48.0 KHzBit depth                                : 16 bitsCompression mode                         : LossyDelay relative to video                  : -5msStream size                              : 293 MiB (13%)Title                                    : Eng Ac3 5.1Language                                 : EnglishDefault                                  : NoForced                                   : NoMenu00:00:00.000                             : :00:00:00.00000:01:14.708                             : :00:01:14.70800:10:02.625                             : :00:10:02.62500:18:57.375                             : :00:18:57.37500:26:07.500                             : :00:26:07.50000:32:38.375                             : :00:32:38.37500:40:59.958                             : :00:40:59.95800:49:14.917                             : :00:49:14.91700:55:30.208                             : :00:55:30.20801:03:32.000                             : :01:03:32.00001:08:58.625                             : :01:08:58.62501:16:29.750                             : :01:16:29.75001:27:17.125                             : :01:27:17.125

Dimensione: 2.18 GB

Categoria: BDRip

ISCRIVETEVI AL FORUM

Presto ci saranno molte novità, registratevi gratuitamente al forum

Ricordiamo a tutti che su Cultura Digitale non sono presenti nessun file, questo torrent è di proprietà del Corsaro nero. pubblicato sul loro sito al seguente indirizzo: Kill Switch la guerra dei mondi (2017).1080.H264.ita.eng.Ac3-5.1.sub.ita.eng-MIRCrew -

COLLEGAMENTO AL TORRENT

Importante: è un link con magnet, si dovrebbe aprire da solo. Se vi esce errore 404 nel vostro computer non è installato un programma per torrent o l’estensione che fa aprire i file magnet.

 Copiate questo link
magnet:?xt=urn:btih:b89b5a23a47ac55ce720a29f850054ef7620aa4e&dn=Kill+Switch+-+la+guerra+dei+mondi+%282017%29.1080.H264.ita.eng.Ac3-5.1.sub.ita.eng-MIRCrew&tr=udp%3A%2F%2Ftracker.coppersurfer.tk%3A6969%2Fannounce

Per firefox usare questa estensione – Per Chrome usare questa estensione
Oppure usare Torxh web browser

Se i link risultassero non raggiungibili o bloccati a livello DNS

Seguite la guida Su Questo Articolo : GUIDA COME CAMBIARE DNS