Kiseiju Lospite indesiderato (2014) 1080p.H264.Dts.Ita.2.0.FLAC.Jap.2.1.Eng.5.1.Sub.Ita.Eng [43GB – Torrent download

I Testi di tutte le canzoni del Festival di Sanremo 2020
TUTTE LE CANZONI DI SANREMO 2020

Ecco a voi il torrent Kiseiju Lospite indesiderato (2014) 1080p.H264.Dts.Ita.2.0.FLAC.Jap.2.1.Eng.5.1.Sub.Ita.Eng [43GB - proveniente dagli archivi di Torrent

Lo staff di Cultura digitale al fine di promuovere la cultura condivide i contenuti presenti sul sito il corsaro nero.

Nome del Torrent: Kiseiju Lospite indesiderato (2014) 1080p.H264.Dts.Ita.2.0.FLAC.Jap.2.1.Eng.5.1.Sub.Ita.Eng [43GB -

Descrizione del torrent: Kiseiju - L';ospite indesiderato .: Scheda del filmato :.Titolo originale Kiseijuu - Sei no KakuritsuTitolo Kanji: ??? ?????Anno: 2014 - 2015Genere: Azione, Drammatico, Fantascienza, Horror, Psicologico, Sentimentale, Splatter Episodi: 24.: Trama :.Una normalissima notte in Giappone… sembra nevicare ma ad uno sguardo più attento i nostri occhi si accorgono che quelli non sono propriamente dei fiocchi di neve. In realtà sono parassiti, alieni, simbionti, chiamateli come vi pare e hanno un precisa intenzione: sostituire l’uomo come specie dominante del pianeta Terra! Shinichi è un ragazzo come tanti altri, discreto negli studi, imbranato con le ragazze e un po’ timido. Ma una notte la sua vita cambia. Qualcosa entra nel corpo di Shinichi, e si impossessa della sua mano destra. Intanto altri esseri umani vengono posseduti dagli alieni, e cominciano a mietere vittime. Nessuno riesce a capire il motivo di questi omicidi così brutali. Uomini, donne e bambini vengono massacrati, intere famiglie vengono sterminate e non se ne capisce il motivo. Shinichi intanto, impara a convivere con il suo parassita, al quale attribuisce anche un nome: Migi (Destri)..: ScreenShot :.In serata.: Scheda tecnica  :.[spoilerGeneralUnique ID                                : 291666101523673696197530266807967897544 (0xDB6CD90DEC89F76ACD562AD0C10F57CComplete name                            : /data/disk4/stress/files/downloads/Kiseiju - L';ospite indesiderato [BluRay.1080p.x264.DTS.ITA.FLAC.JAP.ENG.Sub.Ita.Eng by stress/Kiseiju - L';ospite indesiderato - 1x01 - La metamorfosi - 1080p by stress.mkvFormat                                   : MatroskaFormat version                           : Version 4 / Version 2File size                                : 1.81 GiBDuration                                 : 22mn 51sOverall bit rate mode                    : VariableOverall bit rate                         : 11.4 MbpsMovie name                               : Kiseiju - L';ospite indesiderato - 1x01 - La metamorfosi - 1080p by stressEncoded date                             : UTC 2020-03-01 03:27:01Writing application                      : mkvmerge v43.0.0 (';The Quartermaster' 64-bitWriting library                          : libebml v1.3.10 + libmatroska v1.5.2Attachments                              : DAYROM.ttf / GandhiSans-Bold.otf / GandhiSans-BoldItalic.otf / helvetica-neue-bold.ttf / JandaEverydayCasual.ttf / Kreon-Bold.ttf / Kreon-Regular.ttf / OctemberScript.ttf / Alpha54.ttf / ArtificeSSK.ttf / AVERIASANS-LIGHT.TTF / AVERIASANS-LIGHT.ttfVideoID                                       : 1Format                                   : AVCFormat/Info                              : Advanced Video CodecFormat profile                           : High [email protected] settings, CABAC                   : YesFormat settings, ReFrames                : 4 framesCodec ID                                 : V_MPEG4/ISO/AVCDuration                                 : 22mn 51sBit rate                                 : 7 637 KbpsWidth                                    : 1 920 pixelsHeight                                   : 1 080 pixelsDisplay aspect ratio                     : 16:9Frame rate mode                          : ConstantFrame rate                               : 23.976 (24000/1001) fpsColor space                              : YUVChroma subsampling                       : 4:2:0Bit depth                                : 10 bitsScan type                                : ProgressiveBits/(Pixel*Frame)                       : 0.154Stream size                              : 1.22 GiB (67%)Title                                    : by stressWriting library                          : x264 core 148 r2597M e86f3a1 (DJATOM';s build)Encoding settings                        : cabac=1 / ref=4 / deblock=1:1:-1 / analyse=0x3:0x113 / me=umh / subme=9 / psy=1 / fade_compensate=0.00 / psy_rd=1.00:0.00 / mixed_ref=1 / me_range=32 / chroma_me=1 / trellis=2 / 8x8dct=1 / cqm=0 / deadzone=21,11 / fast_pskip=1 / chroma_qp_offset=-2 / threads=34 / lookahead_threads=5 / sliced_threads=0 / nr=0 / decimate=1 / interlaced=0 / bluray_compat=0 / constrained_intra=0 / bframes=9 / b_pyramid=2 / b_adapt=2 / b_bias=0 / direct=1 / weightb=1 / open_gop=0 / weightp=2 / keyint=250 / keyint_min=23 / scenecut=40 / intra_refresh=0 / rc=crf / mbtree=0 / crf=15.5000 / qcomp=0.72 / qpmin=0 / qpmax=81 / qpstep=4 / ip_ratio=1.40 / pb_ratio=1.30 / aq=1:0.85Language                                 : JapaneseDefault                                  : YesForced                                   : NoColor range                              : LimitedColor primaries                          : BT.709Transfer characteristics                 : BT.709Matrix coefficients                      : BT.709Audio #1ID                                       : 2Format                                   : DTSFormat/Info                              : Digital Theater SystemsMode                                     : 16Format settings, Endianness              : BigCodec ID                                 : A_DTSDuration                                 : 22mn 51sBit rate mode                            : ConstantBit rate                                 : 639 KbpsChannel(s)                               : 2 channelsChannel positions                        : Front: L RSampling rate                            : 48.0 KHzFrame rate                               : 93.750 fps (512 spf)Bit depth                                : 24 bitsCompression mode                         : LossyStream size                              : 104 MiB (6%)Title                                    : ItalianoLanguage                                 : ItalianDefault                                  : YesForced                                   : YesAudio #2ID                                       : 3Format                                   : FLACFormat/Info                              : Free Lossless Audio CodecCodec ID                                 : A_FLACDuration                                 : 22mn 51sBit rate mode                            : VariableBit rate                                 : 1 448 KbpsChannel(s)                               : 2 channelsChannel positions                        : Front: L RSampling rate                            : 48.0 KHzFrame rate                               : 11.719 fps (4096 spf)Bit depth                                : 24 bitsStream size                              : 237 MiB (13%)Title                                    : ???Writing library                          : libFLAC 1.3.1 (UTC 2014-11-25)Language                                 : JapaneseDefault                                  : NoForced                                   : NoAudio #3ID                                       : 4Format                                   : FLACFormat/Info                              : Free Lossless Audio CodecCodec ID                                 : A_FLACDuration                                 : 22mn 51sBit rate mode                            : VariableBit rate                                 : 1 600 KbpsChannel(s)                               : 6 channelsChannel positions                        : Front: L C R, Side: L R, LFESampling rate                            : 48.0 KHzFrame rate                               : 11.719 fps (4096 spf)Bit depth                                : 16 bitsStream size                              : 262 MiB (14%)Title                                    : EnglishWriting library                          : libFLAC 1.3.1 (UTC 2014-11-25)Language                                 : EnglishDefault                                  : NoForced                                   : YesText #1ID                                       : 5Format                                   : PGSMuxing mode                              : zlibCodec ID                                 : S_HDMV/PGSCodec ID/Info                            : Picture based subtitle format used on BDs/HD-DVDsDuration                                 : 20mn 54sBit rate                                 : 778 bpsCount of elements                        : 14Stream size                              : 119 KiB (0%)Title                                    : CartelliLanguage                                 : ItalianDefault                                  : YesForced                                   : YesText #2ID                                       : 6Format                                   : PGSMuxing mode                              : zlibCodec ID                                 : S_HDMV/PGSCodec ID/Info                            : Picture based subtitle format used on BDs/HD-DVDsDuration                                 : 22mn 45sBit rate                                 : 36.2 KbpsCount of elements                        : 593Stream size                              : 5.90 MiB (0%)Title                                    : DialoghiLanguage                                 : ItalianDefault                                  : NoForced                                   : NoText #3ID                                       : 7Format                                   : ASSCodec ID                                 : S_TEXT/ASSCodec ID/Info                            : Advanced Sub Station AlphaDuration                                 : 22mn 48sBit rate                                 : 1 870 bpsCount of elements                        : 2356Compression mode                         : LosslessStream size                              : 312 KiB (0%)Title                                    : Signs & SongsLanguage                                 : EnglishDefault                                  : NoForced                                   : YesText #4ID                                       : 8Format                                   : ASSCodec ID                                 : S_TEXT/ASSCodec ID/Info                            : Advanced Sub Station AlphaDuration                                 : 22mn 48sBit rate                                 : 1 970 bpsCount of elements                        : 2665Compression mode                         : LosslessStream size                              : 329 KiB (0%)Title                                    : Dialogues [MK-Pn8Language                                 : EnglishDefault                                  : NoForced                                   : NoMenu00:00:00.000                             : en:Intro00:00:24.024                             : en:OP00:01:54.030                             : enart A00:08:59.997                             : enart B00:21:24.992                             : en:ED00:22:35.020                             : enreview[/spoiler.: Note :.Video dei Beatrice, presente audio ita dts, flac jap/eng e sub ita/eng.Orario di seed e Banda disponibile: SeedBox 1GB/s

Dimensione: 43.19 GB

Categoria: Anime

ISCRIVETEVI AL FORUM

Presto ci saranno molte novità, registratevi gratuitamente al forum

Ricordiamo a tutti che su Cultura Digitale non sono presenti nessun file, questo torrent è di proprietà del Corsaro nero. pubblicato sul loro sito al seguente indirizzo: Kiseiju Lospite indesiderato (2014) 1080p.H264.Dts.Ita.2.0.FLAC.Jap.2.1.Eng.5.1.Sub.Ita.Eng [43GB -

COLLEGAMENTO AL TORRENT

Importante: è un link con magnet, si dovrebbe aprire da solo. Se vi esce errore 404 nel vostro computer non è installato un programma per torrent o l’estensione che fa aprire i file magnet.

 Copiate questo link
magnet:?xt=urn:btih:c7b0b5cf5fa7a0413bc33dfb222b83725065e0bc&dn=Kiseiju+-+Lospite+indesiderato+%282014%29+1080p.H264.Dts.Ita.2.0.FLAC.Jap.2.1.Eng.5.1.Sub.Ita.Eng+%5B43GB&tr=http%3A%2F%2Fnyaa.tracker.wf%3A7777%2Fannounce

Per firefox usare questa estensione – Per Chrome usare questa estensione
Oppure usare Torxh web browser

Se i link risultassero non raggiungibili o bloccati a livello DNS

Seguite la guida Su Questo Articolo : GUIDA COME CAMBIARE DNS 

I Testi di tutte le canzoni del Festival di Sanremo 2020
TUTTE LE CANZONI DI SANREMO 2020