– Krypton – S01-02 – 720p H265 Ita Eng Aac Sub Ita Eng – PSA HETeam-ZZZ [COMPLETA] – – Torrent dowload

Ecco a voi il torrent – Krypton – S01-02 – 720p H265 Ita Eng Aac Sub Ita Eng – PSA HETeam-ZZZ [COMPLETA] – proveniente dagli archivi di [Torrent]

Lo staff di Cultura digitale al fine di promuovere la cultura condivide i contenuti presenti sul sito il corsaro nero.

Nome del Torrent: – Krypton – S01-02 – 720p H265 Ita Eng Aac Sub Ita Eng – PSA HETeam-ZZZ [COMPLETA] –

Descrizione del torrent: Krypton (720p – 4.52GB)Grazie a PIR8 per l'audio e i sottotitoli in italiano.INFORMAZIONI SERIETitolo originale: KryptonPaese: Stati Uniti d'AmericaAnno: 2018-2019Formato: serie TVGenere: fantascienza, azione, supereroiStagioni: 2Episodi: 20Durata: 40-45 min (episodio)Lingua originale: ingleseIMDB:tt4276624INTERPRETI E PERSONAGGICameron Cuffe è Seg-El (stagione 1-2): nonno di Superman e Supergirl e padre di Jor-El e Zor-El. Il personaggio è una versione più scorbutica della versione a fumetti.Georgina Campbell è Lyta Zod (stagione 1-2): un cadetto della forza militare kryptoniana, che ha una relazione segreta con Seg-El ed è promessa sposa a Dev-Em.Ian McElhinney è Val-El (stagione 1-2): nonno di Seg, che ha sconfitto la morte andando nella Zona fantasma ed è un sostenitore dell'esplorazione spaziale.Elliot Cowan è Daron-Vex (stagione 1-2): il capo magistrato di Kandor, con il compito di difendere l'oligarchia di Krypton e padre di Nyssa-Vex.Ann Ogbomo è Jayna-Zod (stagione 1-2): il Primus della forza militare kryptoniana e madre di Lyta.Rasmus Hardiker è Kem (stagione 1-2): un ingegnere e miglior amico di Seg.Wallis Day è Nyssa-Vex (stagione 1-2): un magistrato e figlia di Daron-Vex, nonche promessa sposa di Seg.Aaron Pierre è Dev-Em (stagione 1-2): un soldato delle forze di Kandor e promesso sposo di Lyta-Zod.Shaun Sipos è Adam Strange (stagione 1-2): un umano del futuro che tenta di avvisare Seg-El dell'arrivo di Brainiac.Colin Salmon è Dru-Zod (stagione 1-2): il futuro figlio di Seg-El e Lyta-Zod e quindi in questa versione zio di Superman e Supergirl.Blake Ritson è Sacerdote di Rao/ Brainiac (stagione 1-2) la principale figura religiosa di Kandor che viene infettato e controllato da Brainiac, il collezionista di mondi che vuole distruggere Krypton.TRAMAKrypton segue le vicende di Seg-El, nonno di Kal-El/Superman, la cui famiglia è stata ostracizzata e messa in imbarazzo. Seg-El deve lottare per riabilitare il proprio nome e salvare i suoi cari dal caos. Nel contempo dovrà anche cercare di prevenire la distruzione del proprio pianeta Krypton dalla minaccia costituita da Brainiac, il collezionista di civiltà.Krypton.S01.ITA.ENG.720p.WEBRip.x265.HEVC-PSA-ZZZ[spoil]GeneralUnique ID                                : 306207954439745078829845814226366501623 (0xE65D81C200DDECAC1FB926C1812012F7)Complete name                            : G:[720p][DC]Krypton [2018-2019]Krypton.S01.ITA.ENG.720p.WEBRip.x265.HEVC-PSA-ZZZKrypton.S01E01.ITA.ENG.720p.WEBRip.x265.HEVC-PSA-ZZZ.mkvFormat                                   : MatroskaFormat version                           : Version 4File size                                : 218 MiBDuration                                 : 43 min 6 sOverall bit rate                         : 707 kb/sEncoded date                             : UTC 2020-11-01 09:49:37Writing application                      : mkvmerge v51.0.0 ('I Wish&#39 64-bitWriting library                          : libebml v1.4.0 + libmatroska v1.6.2VideoID                                       : 1Format                                   : HEVCFormat/Info                              : High Efficiency Video CodingFormat profile                           : [email protected]@MainCodec ID                                 : V_MPEGH/ISO/HEVCDuration                                 : 43 min 6 sBit rate                                 : 566 kb/sWidth                                    : 1 280 pixelsHeight                                   : 720 pixelsDisplay aspect ratio                     : 16:9Frame rate mode                          : ConstantFrame rate                               : 23.976 (24000/1001) FPSColor space                              : YUVChroma subsampling                       : 4:2:0Bit depth                                : 8 bitsBits/(Pixel*Frame)                       : 0.026Stream size                              : 175 MiB (80%)Default                                  : YesForced                                   : NoAudio #1ID                                       : 2Format                                   : AAC LCFormat/Info                              : Advanced Audio Codec Low ComplexityCodec ID                                 : A_AAC-2Duration                                 : 43 min 6 sBit rate                                 : 64.4 kb/sChannel(s)                               : 2 channelsChannel layout                           : L RSampling rate                            : 48.0 kHzFrame rate                               : 46.875 FPS (1024 SPF)Compression mode                         : LossyStream size                              : 19.9 MiB (9%)Title                                    : ITALanguage                                 : ItalianDefault                                  : YesForced                                   : NoAudio #2ID                                       : 3Format                                   : AAC LC SBRFormat/Info                              : Advanced Audio Codec Low Complexity with Spectral Band ReplicationCommercial name                          : HE-AACFormat settings                          : ExplicitCodec ID                                 : A_AAC-2Duration                                 : 43 min 5 sBit rate                                 : 72.0 kb/sChannel(s)                               : 2 channelsChannel layout                           : L RSampling rate                            : 48.0 kHzFrame rate                               : 23.438 FPS (2048 SPF)Compression mode                         : LossyDelay relative to video                  : 23 msStream size                              : 22.4 MiB (10%)Title                                    : ENGLanguage                                 : EnglishDefault                                  : NoForced                                   : NoText #1ID                                       : 4Format                                   : UTF-8Codec ID                                 : S_TEXT/UTF8Codec ID/Info                            : UTF-8 Plain TextDuration                                 : 21 min 31 sBit rate                                 : 0 b/sCount of elements                        : 5Stream size                              : 117 Bytes (0%)Title                                    : Italian (forced)Language                                 : ItalianDefault                                  : YesForced                                   : NoText #2ID                                       : 5Format                                   : UTF-8Codec ID                                 : S_TEXT/UTF8Codec ID/Info                            : UTF-8 Plain TextDuration                                 : 42 min 39 sBit rate                                 : 63 b/sCount of elements                        : 631Stream size                              : 20.0 KiB (0%)Title                                    : ITALanguage                                 : ItalianDefault                                  : NoForced                                   : NoText #3ID                                       : 6Format                                   : UTF-8Codec ID                                 : S_TEXT/UTF8Codec ID/Info                            : UTF-8 Plain TextDuration                                 : 42 min 51 sBit rate                                 : 66 b/sCount of elements                        : 810Stream size                              : 20.9 KiB (0%)Title                                    : ENGLanguage                                 : EnglishDefault                                  : NoForced                                   : No[/spoil]Krypton.S02.ITA.ENG.720p.WEB-DL.x265-HETeam-ZZZ[spoil]GeneralUnique ID                                : 230819132297135529235189328952763071956 (0xADA625DA5706E6A5F56D1C99AF8FBDD4)Complete name                            : G:[720p][DC]Krypton [2018-2019]Krypton.S02.ITA.ENG.720p.WEB-DL.x265-HETeam-ZZZKrypton.S02E01.ITA.ENG.720p.WEB-DL.x265-HETeam-ZZZ.mkvFormat                                   : MatroskaFormat version                           : Version 4File size                                : 239 MiBDuration                                 : 42 min 38 sOverall bit rate                         : 782 kb/sEncoded date                             : UTC 2020-10-31 10:29:06Writing application                      : mkvmerge v51.0.0 ('I Wish&#39 64-bitWriting library                          : libebml v1.4.0 + libmatroska v1.6.2VideoID                                       : 1Format                                   : HEVCFormat/Info                              : High Efficiency Video CodingFormat profile                           : [email protected]@MainCodec ID                                 : V_MPEGH/ISO/HEVCDuration                                 : 42 min 38 sBit rate                                 : 651 kb/sWidth                                    : 1 280 pixelsHeight                                   : 720 pixelsDisplay aspect ratio                     : 16:9Frame rate mode                          : ConstantFrame rate                               : 23.976 (24000/1001) FPSColor space                              : YUVChroma subsampling                       : 4:2:0Bit depth                                : 8 bitsBits/(Pixel*Frame)                       : 0.029Stream size                              : 199 MiB (83%)Default                                  : YesForced                                   : NoColor range                              : LimitedColor primaries                          : BT.709Transfer characteristics                 : BT.709Matrix coefficients                      : BT.709Audio #1ID                                       : 2Format                                   : AAC LCFormat/Info                              : Advanced Audio Codec Low ComplexityCodec ID                                 : A_AAC-2Duration                                 : 42 min 38 sBit rate                                 : 64.4 kb/sChannel(s)                               : 2 channelsChannel layout                           : L RSampling rate                            : 48.0 kHzFrame rate                               : 46.875 FPS (1024 SPF)Compression mode                         : LossyDelay relative to video                  : -7 msStream size                              : 19.7 MiB (8%)Title                                    : ITALanguage                                 : ItalianDefault                                  : YesForced                                   : NoAudio #2ID                                       : 3Format                                   : AAC LC SBRFormat/Info                              : Advanced Audio Codec Low Complexity with Spectral Band ReplicationCommercial name                          : HE-AACFormat settings                          : ExplicitCodec ID                                 : A_AAC-2Duration                                 : 42 min 38 sBit rate                                 : 64.0 kb/sChannel(s)                               : 2 channelsChannel layout                           : L RSampling rate                            : 48.0 kHzFrame rate                               : 23.438 FPS (2048 SPF)Compression mode                         : LossyDelay relative to video                  : -4 msStream size                              : 19.5 MiB (8%)Title                                    : ENGLanguage                                 : EnglishDefault                                  : NoForced                                   : NoText #1ID                                       : 4Format                                   : UTF-8Codec ID                                 : S_TEXT/UTF8Codec ID/Info                            : UTF-8 Plain TextDuration                                 : 42 min 10 sBit rate                                 : 74 b/sCount of elements                        : 715Stream size                              : 23.1 KiB (0%)Title                                    : ITALanguage                                 : ItalianDefault                                  : NoForced                                   : NoText #2ID                                       : 5Format                                   : UTF-8Codec ID                                 : S_TEXT/UTF8Codec ID/Info                            : UTF-8 Plain TextDuration                                 : 42 min 12 sBit rate                                 : 75 b/sCount of elements                        : 831Stream size                              : 23.4 KiB (0%)Title                                    : ENGLanguage                                 : EnglishDefault                                  : NoForced                                   : No[/spoil]*** POST  TEMPLATE TAKEN FROM a PIR8 RELEASE ***EN: Please add manually the following trackers in case the download doesn't start.IT: Si prega di aggiungere manualmente i seguenti tracker nel caso in cui il download non inizi.udp://tracker.leechers-paradise.org:6969/announceudp://tracker.internetwarriors.net:1337/announceudp://tracker.opentrackr.org:1337/announceudp://tracker.coppersurfer.tk:6969/announceudp://tracker.pirateparty.gr:6969/announceudp://9.rarbg.to:2730/announceudp://9.rarbg.to:2710/announceudp://bt.xxx-tracker.com:2710/announceudp://tracker.cyberia.is:6969/announceudp://retracker.lanta-net.ru:2710/announceudp://9.rarbg.to:2770/announceudp://9.rarbg.me:2730/announceudp://eddie4.nl:6969/announceudp://tracker.mg64.net:6969/announceudp://open.demonii.si:1337/announceudp://tracker.zer0day.to:1337/announceudp://tracker.tiny-vps.com:6969/announceudp://ipv6.tracker.harry.lu:80/announceudp://9.rarbg.me:2740/announceudp://9.rarbg.me:2770/announceudp://denis.stalker.upeer.me:6969/announceudp://tracker.port443.xyz:6969/announceudp://tracker.moeking.me:6969/announceudp://exodus.desync.com:6969/announceudp://9.rarbg.to:2740/announceudp://9.rarbg.to:2720/announceudp://tracker.justseed.it:1337/announceudp://tracker.torrent.eu.org:451/announceudp://ipv4.tracker.harry.lu:80/announceudp://tracker.open-internet.nl:6969/announceudp://torrentclub.tech:6969/announceudp://open.stealth.si:80/announcehttp://tracker.tfile.co:80/announce

Dimensione:4.53 GB

Categoria: SerieTv

ISCRIVETEVI AL FORUM

Presto ci saranno molte novità, registratevi gratuitamente al forum

Ricordiamo a tutti che su Cultura Digitale non sono presenti nessun file, questo torrent è di proprietà del Corsaro nero. pubblicato sul loro sito al seguente indirizzo: – Krypton – S01-02 – 720p H265 Ita Eng Aac Sub Ita Eng – PSA HETeam-ZZZ [COMPLETA] –

COLLEGAMENTO AL TORRENT

Importante: è un link con magnet, si dovrebbe aprire da solo. Se vi esce errore 404 nel vostro computer non è installato un programma per torrent o l’estensione che fa aprire i file magnet.

 Copiate questo link
magnet:?xt=urn:btih:d1bdcb1043d2d2f4dd086876ef2c350b2f5c722f&dn=Krypton+-+S01-02+-+720p+H265+Ita+Eng+Aac+Sub+Ita+Eng+-+PSA+HETeam-ZZZ+%5BCOMPLETA%5D&tr=udp%3A%2F%2Ftracker.coppersurfer.tk%3A6969%2Fannounce

Per firefox usare questa estensione – Per Chrome usare questa estensione
Oppure usare Torxh web browser

Se i link risultassero non raggiungibili o bloccati a livello DNS

Seguite la guida Su Questo Articolo : GUIDA COME CAMBIARE DNS