L invasione degli ultracorpi (1956).1080p.H264.ita.eng.Ac3.sub.ita.eng-MIRCrew – Torrent download

Ecco a voi il torrent L invasione degli ultracorpi (1956).1080p.H264.ita.eng.Ac3.sub.ita.eng-MIRCrew - proveniente dagli archivi di Torrent

Lo staff di Cultura digitale al fine di promuovere la cultura condivide i contenuti presenti sul sito il corsaro nero.

Nome del Torrent: L invasione degli ultracorpi (1956).1080p.H264.ita.eng.Ac3.sub.ita.eng-MIRCrew -

Descrizione del torrent: Venite a trovarci su mircrew-releases.orgL invasione degli ultracorpi - Invasion of the Body Snatchers (1956).1080p.H264.ita.eng.Ac3.sub.ita.eng-MIRCrewNO FOUND ONLY ORIGINAL RELEASEMy release is always in double track audio italian and Original audiofor select it use VLC or dvd player homenot use wmp L invasione degli ultracorpi - Invasion of the Body Snatchers (1956)Quality MIRCrew on HD 1080p da 1,6 gb Titolo originale Invasion of the Body SnatchersPaese di produzione Stati Uniti d'AmericaAnno 1956Durata 80 minDati tecnici B/NGenere orrore, fantascienza, thrillerRegia Don SiegelSoggetto Jack Finney (romanzo)Sceneggiatura Daniel Mainwaring, Richard Collins, Sam Peckinpah    Kevin McCarthy: dottor Miles J. Bennell    Dana Wynter: Becky Driscoll    Larry Gates: dottor Dan 'Danny' Kauffman    King Donovan: Jack Belicec    Carolyn Jones: Theodora Belicec    Jean Willes: Sally Withers    Ralph Dumke: Nick Grivett    Virginia Christine: Wilma Lentz    Jean Andrew: zia Eleda Lentz    Everett Glass: dottor Ed Pursey    Tom Fadden: Ira Lentz    Kenneth Patterson: Stanley Driscoll    Eileen Stevens: sig.ra Grimaldi    Guy Way: Sam Janzek    Bobby Clark: Jimmy    Whit Bissell: dottor Hill    Richard Deacon: Dr. Harvey Bassett    Sam Peckinpah: operaio del gasIl dottor Miles J. Bennell racconta al collega dottor Hill una storia allucinante. La cittadina di Santa Mira è stata invasa da extraterrestri che copiano perfettamente gli abitanti ai quali si sostituiscono durante il sonno. Dr. Miles Bennell returns to his small town practice to find several of his patients suffering the paranoid delusion that their friends or relatives are impostors. He is initially skeptical, especially when the alleged doppelgangers are able to answer detailed questions about their victim's lives, but he is eventually persuaded that something odd has happened and determines to find out what is causing this phenomenon.   GeneralComplete name                            : L'invasione degli ultracorpi - Invasion of the Body Snatchers (1956).1080p.h264.ita.eng-MIRCrewL'invasione degli ultracorpi - Invasion of the Body Snatchers (1956).1080p.h264.ita.eng-MIRCrew.mkvFormat                                   : MatroskaFormat version                           : Version 2File size                                : 1.63 GiBDuration                                 : 1h 20mnOverall bit rate                         : 2 886 KbpsMovie name                               : MIRCrewEncoded date                             : UTC 2020-06-24 17:23:43Writing application                      : mkvmerge v5.8.0 ('No Sleep / Pillow' built on Sep  2 2012 15:37:04Writing library                          : libebml v1.2.3 + libmatroska v1.3.0VideoID                                       : 1Format                                   : AVCFormat/Info                              : Advanced Video CodecFormat profile                           : [email protected] settings, CABAC                   : YesFormat settings, ReFrames                : 4 framesCodec ID                                 : V_MPEG4/ISO/AVCDuration                                 : 1h 20mnBit rate                                 : 2 500 KbpsWidth                                    : 1 920 pixelsHeight                                   : 960 pixelsDisplay aspect ratio                     : 2.000Frame rate                               : 23.976 fpsColor space                              : YUVChroma subsampling                       : 4:2:0Bit depth                                : 8 bitsScan type                                : ProgressiveBits/(Pixel*Frame)                       : 0.057Stream size                              : 1.38 GiB (85%)Title                                    : MIRCrewWriting library                          : x264 core 152 r2851M ba24899Encoding settings                        : cabac=1 / ref=4 / deblock=1:-1:-1 / analyse=0x3:0x113 / me=umh / subme=9 / psy=1 / psy_rd=1.00:0.15 / mixed_ref=1 / me_range=24 / chroma_me=1 / trellis=2 / 8x8dct=1 / cqm=0 / deadzone=21,11 / fast_pskip=1 / chroma_qp_offset=-3 / threads=32 / lookahead_threads=4 / sliced_threads=0 / nr=0 / decimate=1 / interlaced=0 / bluray_compat=0 / constrained_intra=0 / bframes=3 / b_pyramid=2 / b_adapt=2 / b_bias=0 / direct=3 / weightb=1 / open_gop=0 / weightp=2 / keyint=250 / keyint_min=25 / scenecut=40 / intra_refresh=0 / rc_lookahead=50 / rc=2pass / mbtree=1 / bitrate=2500 / ratetol=1.0 / qcomp=0.60 / qpmin=0 / qpmax=69 / qpstep=4 / cplxblur=20.0 / qblur=0.5 / vbv_maxrate=31250 / vbv_bufsize=31250 / nal_hrd=none / filler=0 / ip_ratio=1.40 / aq=3:1.00Language                                 : ItalianDefault                                  : YesForced                                   : NoAudio #1ID                                       : 2Format                                   : AC-3Format/Info                              : Audio Coding 3Mode extension                           : CM (complete main)Codec ID                                 : A_AC3Duration                                 : 1h 20mnBit rate mode                            : ConstantBit rate                                 : 192 KbpsChannel(s)                               : 2 channelsChannel positions                        : Front: L RSampling rate                            : 48.0 KHzBit depth                                : 16 bitsCompression mode                         : LossyStream size                              : 111 MiB (7%)Title                                    : Ita Ac3Language                                 : ItalianDefault                                  : YesForced                                   : NoAudio #2ID                                       : 3Format                                   : AC-3Format/Info                              : Audio Coding 3Mode extension                           : CM (complete main)Codec ID                                 : A_AC3Duration                                 : 1h 20mnBit rate mode                            : ConstantBit rate                                 : 192 KbpsChannel(s)                               : 2 channelsChannel positions                        : Front: L RSampling rate                            : 48.0 KHzBit depth                                : 16 bitsCompression mode                         : LossyStream size                              : 111 MiB (7%)Title                                    : Eng Ac3Language                                 : EnglishDefault                                  : NoForced                                   : No

Dimensione: 1.63 GB

Categoria: BDRip

ISCRIVETEVI AL FORUM

Presto ci saranno molte novità, registratevi gratuitamente al forum

Ricordiamo a tutti che su Cultura Digitale non sono presenti nessun file, questo torrent è di proprietà del Corsaro nero. pubblicato sul loro sito al seguente indirizzo: L invasione degli ultracorpi (1956).1080p.H264.ita.eng.Ac3.sub.ita.eng-MIRCrew -

COLLEGAMENTO AL TORRENT

Importante: è un link con magnet, si dovrebbe aprire da solo. Se vi esce errore 404 nel vostro computer non è installato un programma per torrent o l’estensione che fa aprire i file magnet.

 Copiate questo link
magnet:?xt=urn:btih:2765ff5c23d2981be2b6238dbf584ef9d574d23e&dn=L+invasione+degli+ultracorpi+%281956%29.1080p.H264.ita.eng.Ac3.sub.ita.eng-MIRCrew&tr=udp%3A%2F%2Ftracker.torrent.eu.org%3A451%2Fannounce

Per firefox usare questa estensione – Per Chrome usare questa estensione
Oppure usare Torxh web browser

Se i link risultassero non raggiungibili o bloccati a livello DNS

Seguite la guida Su Questo Articolo : GUIDA COME CAMBIARE DNS