– La legge violenta della squadra anticrimine (1976) ITA Ac3 2.0 DVDRip SD H264 [ArMor] – – Torrent dowload

Ecco a voi il torrent – La legge violenta della squadra anticrimine (1976) ITA Ac3 2.0 DVDRip SD H264 [ArMor] – proveniente dagli archivi di [Torrent]

Lo staff di Cultura digitale al fine di promuovere la cultura condivide i contenuti presenti sul sito il corsaro nero.

Nome del Torrent: – La legge violenta della squadra anticrimine (1976) ITA Ac3 2.0 DVDRip SD H264 [ArMor] –

Descrizione del torrent: [center]Clicca qua per ingrandire questa immagineRegista: Stelvio MassiGenere: PoliziescoAnno: 1976Paese: ItaliaDurata: 95 minDistribuzione: PAC – LINEAFILMClicca qua per ingrandire questa immagineJohn Saxon, Lee J. Cobb, Renzo Palmer, Lino Capolicchio, Rosanna Fratello, Antonella Lualdi, Thomas Hunter, Giacomo Piperno, Guido Celano, Alfredo Zammi, Pasquale Basile, Francesco D'AddaClicca qua per ingrandire questa immagineDopo avere ucciso un carabiniere, durante una rapina a Bari, il giovane Antonio Blasi scappa con l'auto di un mafioso, fratello del "boss" Dante Ragusa. Mentre il commissario Jacovella, scovati i suoi due complici, indaga per stanare anche Antonio, alla sua ricerca si gettano anche gli uomini di Ragusa. Sull'auto rubata a Nino, infatti, si trovava un documento tale da rovinare il "boss" .Clicca qua per ingrandire questa immagineA mobster kills a cop during a robbery so he finds himself pursued by the police, his gang, and the media. Clicca qua per ingrandire questa immagineClicca qua per ingrandire questa immagineClicca qua per ingrandire questa immagineClicca qua per ingrandire questa immagineClicca qua per ingrandire questa immagineClicca qua per ingrandire questa immagineGeneralUnique ID                                : 281085636452859859551709729139935909657 (0xD3771FD9DE8643848FFCBC419EBB9719)Complete name                            : La legge violenta della squadra anticrimine (1976) ITA Ac3 2.0 DVDRip SD H264 [ArMor].mkvFormat                                   : MatroskaFormat version                           : Version 4File size                                : 861 MiBDuration                                 : 1 h 28 minOverall bit rate                         : 1 358 kb/sEncoded date                             : UTC 2020-10-30 14:26:54Writing application                      : HandBrake 1.3.3 2020061300Writing library                          : Lavf58.29.100ErrorDetectionType                       : Per level 1VideoID                                       : 1Format                                   : AVCFormat/Info                              : Advanced Video CodecFormat profile                           : [email protected] settings                          : CABAC / 4 Ref FramesFormat settings, CABAC                   : YesFormat settings, Reference frames        : 4 framesCodec ID                                 : V_MPEG4/ISO/AVCDuration                                 : 1 h 28 minBit rate                                 : 1 139 kb/sWidth                                    : 720 pixelsHeight                                   : 384 pixelsDisplay aspect ratio                     : 1.85:1Frame rate mode                          : ConstantFrame rate                               : 25.000 FPSColor space                              : YUVChroma subsampling                       : 4:2:0Bit depth                                : 8 bitsScan type                                : ProgressiveBits/(Pixel*Frame)                       : 0.165Stream size                              : 722 MiB (84%)Writing library                          : x264 core 157 r2935 545de2fEncoding settings                        : cabac=1 / ref=2 / deblock=1:0:0 / analyse=0x1:0x111 / me=hex / subme=6 / psy=1 / psy_rd=1.00:0.00 / mixed_ref=1 / me_range=16 / chroma_me=1 / trellis=1 / 8x8dct=0 / cqm=0 / deadzone=21,11 / fast_pskip=1 / chroma_qp_offset=-2 / threads=12 / lookahead_threads=2 / sliced_threads=0 / nr=0 / decimate=1 / interlaced=0 / bluray_compat=0 / constrained_intra=0 / bframes=3 / b_pyramid=2 / b_adapt=1 / b_bias=0 / direct=1 / weightb=1 / open_gop=0 / weightp=1 / keyint=250 / keyint_min=25 / scenecut=40 / intra_refresh=0 / rc_lookahead=30 / rc=crf / mbtree=1 / crf=20.0 / qcomp=0.60 / qpmin=0 / qpmax=69 / qpstep=4 / vbv_maxrate=20000 / vbv_bufsize=25000 / crf_max=0.0 / nal_hrd=none / filler=0 / ip_ratio=1.40 / aq=1:1.00Default                                  : YesForced                                   : NoColor range                              : LimitedColor primaries                          : BT.601 PALTransfer characteristics                 : BT.709Matrix coefficients                      : BT.601AudioID                                       : 2Format                                   : AC-3Format/Info                              : Audio Coding 3Commercial name                          : Dolby DigitalCodec ID                                 : A_AC3Duration                                 : 1 h 28 minBit rate mode                            : ConstantBit rate                                 : 192 kb/sChannel(s)                               : 2 channelsChannel layout                           : L RSampling rate                            : 48.0 kHzFrame rate                               : 31.250 FPS (1536 SPF)Compression mode                         : LossyStream size                              : 122 MiB (14%)Title                                    : StereoLanguage                                 : ItalianService kind                             : Complete MainDefault                                  : YesForced                                   : NoMenu00:00:00.080                             : :Chapter 100:05:44.240                             : :Chapter 200:11:38.000                             : :Chapter 300:16:11.120                             : :Chapter 400:23:21.200                             : :Chapter 500:27:43.280                             : :Chapter 600:30:24.560                             : :Chapter 700:38:25.040                             : :Chapter 800:44:05.840                             : :Chapter 900:49:10.160                             : :Chapter 1000:55:49.040                             : :Chapter 1101:00:02.960                             : :Chapter 1201:05:26.960                             : :Chapter 1301:11:44.240                             : :Chapter 1401:16:59.120                             : :Chapter 1501:19:53.840                             : :Chapter 16[/center]Clicca qua per ingrandire questa immagine

Dimensione:863.70 MB

Categoria: BDRip

ISCRIVETEVI AL FORUM

Presto ci saranno molte novità, registratevi gratuitamente al forum

Ricordiamo a tutti che su Cultura Digitale non sono presenti nessun file, questo torrent è di proprietà del Corsaro nero. pubblicato sul loro sito al seguente indirizzo: – La legge violenta della squadra anticrimine (1976) ITA Ac3 2.0 DVDRip SD H264 [ArMor] –

COLLEGAMENTO AL TORRENT

Importante: è un link con magnet, si dovrebbe aprire da solo. Se vi esce errore 404 nel vostro computer non è installato un programma per torrent o l’estensione che fa aprire i file magnet.

 Copiate questo link
magnet:?xt=urn:btih:4af8860ed5250343e5fdf36ab0871f23304dfeaf&dn=La+legge+violenta+della+squadra+anticrimine+%281976%29+ITA+Ac3+2.0+DVDRip+SD+H264+%5BArMor%5D&tr=udp%3A%2F%2Ftracker.coppersurfer.tk%3A6969%2Fannounce

Per firefox usare questa estensione – Per Chrome usare questa estensione
Oppure usare Torxh web browser

Se i link risultassero non raggiungibili o bloccati a livello DNS

Seguite la guida Su Questo Articolo : GUIDA COME CAMBIARE DNS