La Llorona Le lacrime del male (2019) 1080p H264 ita eng Ac3-5 1 multisub-MIRcrew Torrent

Ecco a voi il torrent La Llorona Le lacrime del male (2019) 1080p H264 ita eng Ac3-5 1 multisub-MIRcrew proveniente dagli archivi di Torrent

Lo staff di Cultura digitale al fine di promuovere la cultura condivide i contenuti presenti sul sito il corsaro nero.

Nome del Torrent: La Llorona Le lacrime del male (2019) 1080p H264 ita eng Ac3-5 1 multisub-MIRcrew

Descrizione del torrent: venite a trovarci su mircrew-releasesLa Llorona - Le lacrime del male - The Curse of La Llorona (2019).1080p.H264.ita.eng.Ac3-5.1.multisub-MIRCrewNO FOUND ONLY ORIGINAL RELEASEMy release is always in double track audio italian and Original audiofor select it use VLC or dvd player homenot use wmp La Llorona - Le lacrime del male - The Curse of La Llorona (2019)Quality MIRCrew on HD 1080p da  6,8 gb Regista: Michael ChavesGenere: Horror, ThrillerAnno: 2019Paese: USADurata: 93 minLinda Cardellini, Raymond Cruz, Patricia Velasquez, Marisol Ramirez, Sean Patrick Thomas, John Marshall Jones, Roman Christou, Madeleine McGraw, Jaynee-Lynne Kinchen, Tony AmendolaLa Llorona - Le lacrime del male, il film diretto da Michael Chaves, segue la storia di La Llorona. La donna che piange. Un’apparizione terrificante, intrappolata tra il Paradiso e l’Inferno, quella di una donna segnata da un terribile destino che si è creata con le sue stesse mani. Ignoring the eerie warning of a troubled mother suspected of child endangerment, a social worker and her own small kids are soon drawn into a frightening supernatural realm.   GeneralUnique ID                                : 239791768766622726168496332979390264760 (0xB46636FC616CF4C58E773373A03E35BComplete name                            : La Llorona - Le lacrime del male - The Curse of La Llorona (2019).1080p.ita.eng.multisub-MIRCrewLa Llorona - Le lacrime del male - The Curse of La Llorona (2019).1080p.ita.eng.multisub-MIRCrew.mkvFormat                                   : MatroskaFormat version                           : Version 2File size                                : 6.86 GiBDuration                                 : 1h 33mnOverall bit rate                         : 10.5 MbpsMovie name                               : MIRCrewEncoded date                             : UTC 2019-08-01 13:14:01Writing application                      : mkvmerge v5.8.0 ('No Sleep / Pillow' built on Sep  2 2012 15:37:04Writing library                          : libebml v1.2.3 + libmatroska v1.3.0DURATION                                 : 01:32:29.898000000NUMBER_OF_FRAMES                         : 1518NUMBER_OF_BYTES                          : 11003506_STATISTICS_WRITING_APP                  : mkvmerge v34.0.0 ('Sight and Seen' 64-bit_STATISTICS_WRITING_DATE_UTC             : 2019-07-21 12:36:37_STATISTICS_TAGS                         : BPS DURATION NUMBER_OF_FRAMES NUMBER_OF_BYTESVideoID                                       : 1Format                                   : AVCFormat/Info                              : Advanced Video CodecFormat profile                           : [email protected] settings, CABAC                   : YesFormat settings, ReFrames                : 5 framesCodec ID                                 : V_MPEG4/ISO/AVCDuration                                 : 1h 33mnBit rate                                 : 9 424 KbpsWidth                                    : 1 920 pixelsHeight                                   : 800 pixelsDisplay aspect ratio                     : 2.40:1Frame rate                               : 23.976 fpsColor space                              : YUVChroma subsampling                       : 4:2:0Bit depth                                : 8 bitsScan type                                : ProgressiveBits/(Pixel*Frame)                       : 0.256Stream size                              : 6.02 GiB (88%)Title                                    : MIRCrewWriting library                          : x264 core 157 r2969 d4099ddEncoding settings                        : cabac=1 / ref=5 / deblock=1:0:0 / analyse=0x3:0x113 / me=umh / subme=8 / psy=1 / psy_rd=1.00:0.00 / mixed_ref=1 / me_range=16 / chroma_me=1 / trellis=2 / 8x8dct=1 / cqm=0 / deadzone=21,11 / fast_pskip=1 / chroma_qp_offset=-2 / threads=16 / lookahead_threads=2 / sliced_threads=0 / nr=0 / decimate=1 / interlaced=0 / bluray_compat=0 / constrained_intra=0 / bframes=3 / b_pyramid=2 / b_adapt=2 / b_bias=0 / direct=3 / weightb=1 / open_gop=0 / weightp=2 / keyint=240 / keyint_min=23 / scenecut=40 / intra_refresh=0 / rc_lookahead=50 / rc=2pass / mbtree=1 / bitrate=9424 / ratetol=1.0 / qcomp=0.60 / qpmin=0 / qpmax=69 / qpstep=4 / cplxblur=20.0 / qblur=0.5 / ip_ratio=1.40 / aq=1:1.00Language                                 : ItalianDefault                                  : YesForced                                   : YesAudio #1ID                                       : 2Format                                   : AC-3Format/Info                              : Audio Coding 3Mode extension                           : CM (complete main)Codec ID                                 : A_AC3Duration                                 : 1h 33mnBit rate mode                            : ConstantBit rate                                 : 640 KbpsChannel(s)                               : 6 channelsChannel positions                        : Front: L C R, Side: L R, LFESampling rate                            : 48.0 KHzBit depth                                : 16 bitsCompression mode                         : LossyStream size                              : 427 MiB (6%)Title                                    : Ita Ac3 5.1Language                                 : ItalianDefault                                  : YesForced                                   : NoAudio #2ID                                       : 3Format                                   : AC-3Format/Info                              : Audio Coding 3Mode extension                           : CM (complete main)Codec ID                                 : A_AC3Duration                                 : 1h 33mnBit rate mode                            : ConstantBit rate                                 : 448 KbpsChannel(s)                               : 6 channelsChannel positions                        : Front: L C R, Side: L R, LFESampling rate                            : 48.0 KHzBit depth                                : 16 bitsCompression mode                         : LossyStream size                              : 299 MiB (4%)Title                                    : Eng Ac3 5.1Language                                 : EnglishDefault                                  : NoForced                                   : NoDURATION                                 : 01:33:14.144000000NUMBER_OF_FRAMES                         : 174817NUMBER_OF_BYTES                          : 313272064_STATISTICS_WRITING_APP                  : mkvmerge v34.0.0 ('Sight and Seen' 64-bit_STATISTICS_WRITING_DATE_UTC             : 2019-07-21 12:36:37_STATISTICS_TAGS                         : BPS DURATION NUMBER_OF_FRAMES NUMBER_OF_BYTESText #1ID                                       : 4Format                                   : UTF-8Codec ID                                 : S_TEXT/UTF8Codec ID/Info                            : UTF-8 Plain TextTitle                                    : English-SRTLanguage                                 : EnglishDefault                                  : YesForced                                   : NoText #2ID                                       : 5Format                                   : PGSMuxing mode                              : zlibCodec ID                                 : S_HDMV/PGSCodec ID/Info                            : The same subtitle format used on BDs/HD-DVDsTitle                                    : English-PGSLanguage                                 : EnglishDefault                                  : NoForced                                   : NoText #3ID                                       : 6Format                                   : PGSMuxing mode                              : zlibCodec ID                                 : S_HDMV/PGSCodec ID/Info                            : The same subtitle format used on BDs/HD-DVDsTitle                                    : French-PGSLanguage                                 : FrenchDefault                                  : NoForced                                   : NoText #4ID                                       : 7Format                                   : PGSMuxing mode                              : zlibCodec ID                                 : S_HDMV/PGSCodec ID/Info                            : The same subtitle format used on BDs/HD-DVDsTitle                                    : Spanish-PGSLanguage                                 : SpanishDefault                                  : NoForced                                   : NoText #5ID                                       : 8Format                                   : PGSMuxing mode                              : zlibCodec ID                                 : S_HDMV/PGSCodec ID/Info                            : The same subtitle format used on BDs/HD-DVDsTitle                                    : Portuguese-PGSLanguage                                 : PortugueseDefault                                  : NoForced                                   : NoMenu00:00:00.000                             : en:Chapter 0100:09:24.355                             : en:Chapter 0200:18:21.266                             : en:Chapter 0300:28:09.104                             : en:Chapter 0400:38:14.208                             : en:Chapter 0500:48:09.595                             : en:Chapter 0600:58:07.317                             : en:Chapter 0701:09:04.557                             : en:Chapter 0801:18:15.148                             : en:Chapter 0901:26:30.727                             : en:Chapter 10

Dimensione: 6.86 GB

Categoria: BDRip

ISCRIVETEVI AL FORUM

Presto ci saranno molte novità, registratevi gratuitamente al forum

Ricordiamo a tutti che su Cultura Digitale non sono presenti nessun file, questo torrent è di proprietà del Corsaro nero. pubblicato sul loro sito al seguente indirizzo: La Llorona Le lacrime del male (2019) 1080p H264 ita eng Ac3-5 1 multisub-MIRcrew

COLLEGAMENTO AL TORRENT

Importante: è un link con magnet, si dovrebbe aprire da solo. Se vi esce errore 404 nel vostro computer non è installato un programma per torrent o l’estensione che fa aprire i file magnet.

 Copiate questo link
magnet:?xt=urn:btih:b9dacd34b3ea8ef9d56f5412a6a1ac0c07a6c8e6&dn=La+Llorona+-+Le+lacrime+del+male+%282019%29.1080p.H264.ita.eng.Ac3-5.1.multisub-MIRcrew&tr=udp%3A%2F%2Ftracker.opentrackr.org%3A1337%2Fannounce

Per firefox usare questa estensione – Per Chrome usare questa estensione
Oppure usare Torxh web browser

Se i link risultassero non raggiungibili o bloccati a livello DNS

Seguite la guida Su Questo Articolo : GUIDA COME CAMBIARE DNS