La mia vita con John F. Donovan (2018).720p.H264.ita.eng.Ac3-5.1.sub.eng-MIRCrew – Torrent download

Ecco a voi il torrent La mia vita con John F. Donovan (2018).720p.H264.ita.eng.Ac3-5.1.sub.eng-MIRCrew - proveniente dagli archivi di Torrent

Lo staff di Cultura digitale al fine di promuovere la cultura condivide i contenuti presenti sul sito il corsaro nero.

Nome del Torrent: La mia vita con John F. Donovan (2018).720p.H264.ita.eng.Ac3-5.1.sub.eng-MIRCrew -

Descrizione del torrent: The Death and Life of John F. Donovan - La mia vita con John F. Donovan (201.720p.H264.ita.eng.Ac3-5.1.sub.eng-MIRCrewClicca qua per ingrandire questa immagineNO FOUND ONLY ORIGINAL RELEASEMy release is always in double track audio italian and Original audiofor select it use VLC or dvd player homenot use wmp La mia vita con John F. Donovan - The Death and Life of John F. Donovan (201Quality MIRCrew on HD 720p da 2,4 gbClicca qua per ingrandire questa immagine [img]hhttps://s19.postimg.cc/bgh0za7kj/banner_scheda.gif[/img]Titolo originale The Death and Life of John F. DonovanLingua originale inglesePaese di produzione Canada, Regno UnitoAnno 2018Durata 127 minRapporto 2,20:1Genere drammaticoRegia Xavier DolanSoggetto Xavier DolanSceneggiatura Xavier Dolan, Jacob Tierney    Kit Harington: John F. Donovan    Natalie Portman: Sam Turner    Ben Schnetzer: Rupert Turner    Jacob Tremblay: Rupert Turner bambino    Susan Sarandon: Grace Donovan    Jared Keeso: James Donovan    Kathy Bates: Barbara Haggermaker    Thandie Newton: Audrey Newhouse    Chris Zylka: Will Jefford Jr.    Amara Karan: miss Kureishi    Sarah Gadon: Liz Jones    Emily Hampshire: Amy Bosworth    Michael Gambon: uomo nel ristorante    Dakota Taylor: Connor Jefford    Ari Millen: Big Billy    Bella Thorne: JeanetteRupert Turner è sempre stato un grande fan di John F. Donovan, star del cinema e della televisione, morto solo e in disgrazia dopo una serie di scandali che lo hanno coinvolto.A decade after the death of an American television star, a young actor reminisces about the written correspondence he shared with him, as well as the impact those letters had on both their lives. Clicca qua per ingrandire questa immagine   Clicca qua per ingrandire questa immagine Clicca qua per ingrandire questa immagine Clicca qua per ingrandire questa immagineGeneralComplete name                            : La mia vita con John F. Donovan (201.720p.ita.eng.sub.eng-MIRCrewLa mia vita con John F. Donovan (201.720p.ita.eng.sub.eng-MIRCrew.mkvFormat                                   : MatroskaFormat version                           : Version 2File size                                : 2.42 GiBDuration                                 : 2h 4mnOverall bit rate                         : 2 791 KbpsMovie name                               : robbyrsEncoded date                             : UTC 2019-10-15 16:53:18Writing application                      : mkvmerge v5.8.0 ('No Sleep / Pillow' built on Sep  2 2012 15:37:04Writing library                          : Lavf54.63.100COMMENT                                  : robbyrsCOPYRIGHT                                : robbyrsVideoID                                       : 1Format                                   : AVCFormat/Info                              : Advanced Video CodecFormat profile                           : [email protected] settings, CABAC                   : YesFormat settings, ReFrames                : 2 framesCodec ID                                 : V_MPEG4/ISO/AVCDuration                                 : 2h 4mnBit rate                                 : 1 900 KbpsWidth                                    : 1 264 pixelsHeight                                   : 528 pixelsDisplay aspect ratio                     : 2.40:1Original display aspect ratio            : 2.40:1Frame rate mode                          : VariableFrame rate                               : 24.000 fpsColor space                              : YUVChroma subsampling                       : 4:2:0Bit depth                                : 8 bitsScan type                                : ProgressiveBits/(Pixel*Frame)                       : 0.119Stream size                              : 1.60 GiB (66%)Title                                    : robbyrsWriting library                          : x264 core 130 r2273Encoding settings                        : cabac=1 / ref=2 / deblock=1:0:0 / analyse=0x1:0x131 / me=hex / subme=7 / psy=1 / psy_rd=1.00:0.00 / mixed_ref=0 / me_range=16 / chroma_me=1 / trellis=1 / 8x8dct=0 / cqm=0 / deadzone=21,11 / fast_pskip=1 / chroma_qp_offset=-2 / threads=9 / lookahead_threads=1 / sliced_threads=0 / nr=0 / decimate=1 / interlaced=0 / bluray_compat=0 / constrained_intra=0 / bframes=3 / b_pyramid=0 / b_adapt=1 / b_bias=0 / direct=3 / weightb=1 / open_gop=0 / weightp=2 / keyint=240 / keyint_min=24 / scenecut=40 / intra_refresh=0 / rc_lookahead=40 / rc=abr / mbtree=1 / bitrate=1900 / ratetol=1.0 / qcomp=0.60 / qpmin=10 / qpmax=69 / qpstep=4 / vbv_maxrate=24000 / vbv_bufsize=24000 / nal_hrd=none / ip_ratio=1.40 / aq=1:1.00Language                                 : ItalianDefault                                  : YesForced                                   : NoDURATION                                 : 02:04:13.792000000NUMBER_OF_FRAMES                         : 178891NUMBER_OF_BYTES                          : 2331271187_STATISTICS_WRITING_APP                  : mkvmerge v38.0.0 ('The Silent Type' 64-bit_STATISTICS_WRITING_DATE_UTC             : 2019-10-15 16:53:18_STATISTICS_TAGS                         : BPS DURATION NUMBER_OF_FRAMES NUMBER_OF_BYTESAudio #1ID                                       : 2Format                                   : AC-3Format/Info                              : Audio Coding 3Mode extension                           : CM (complete main)Codec ID                                 : A_AC3Duration                                 : 2h 4mnBit rate mode                            : ConstantBit rate                                 : 448 KbpsChannel(s)                               : 6 channelsChannel positions                        : Front: L C R, Side: L R, LFESampling rate                            : 48.0 KHzBit depth                                : 16 bitsCompression mode                         : LossyDelay relative to video                  : -5msStream size                              : 398 MiB (16%)Title                                    : Ita Ac3 5.1Language                                 : ItalianDefault                                  : YesForced                                   : NoDURATION                                 : 02:04:13.856000000NUMBER_OF_FRAMES                         : 232933NUMBER_OF_BYTES                          : 417415936_STATISTICS_WRITING_APP                  : mkvmerge v38.0.0 ('The Silent Type' 64-bit_STATISTICS_WRITING_DATE_UTC             : 2019-10-15 16:53:18_STATISTICS_TAGS                         : BPS DURATION NUMBER_OF_FRAMES NUMBER_OF_BYTESAudio #2ID                                       : 3Format                                   : AC-3Format/Info                              : Audio Coding 3Mode extension                           : CM (complete main)Codec ID                                 : A_AC3Duration                                 : 2h 4mnBit rate mode                            : ConstantBit rate                                 : 448 KbpsChannel(s)                               : 6 channelsChannel positions                        : Front: L C R, Side: L R, LFESampling rate                            : 48.0 KHzBit depth                                : 16 bitsCompression mode                         : LossyDelay relative to video                  : -5msStream size                              : 398 MiB (16%)Title                                    : Eng Ac3 5.1Language                                 : EnglishDefault                                  : NoForced                                   : NoDURATION                                 : 02:04:13.856000000NUMBER_OF_FRAMES                         : 232933NUMBER_OF_BYTES                          : 417415936_STATISTICS_WRITING_APP                  : mkvmerge v38.0.0 ('The Silent Type' 64-bit_STATISTICS_WRITING_DATE_UTC             : 2019-10-15 16:53:18_STATISTICS_TAGS                         : BPS DURATION NUMBER_OF_FRAMES NUMBER_OF_BYTES

Dimensione: 2.42 GB

Categoria: BDRip

ISCRIVETEVI AL FORUM

Presto ci saranno molte novità, registratevi gratuitamente al forum

Ricordiamo a tutti che su Cultura Digitale non sono presenti nessun file, questo torrent è di proprietà del Corsaro nero. pubblicato sul loro sito al seguente indirizzo: La mia vita con John F. Donovan (2018).720p.H264.ita.eng.Ac3-5.1.sub.eng-MIRCrew -

COLLEGAMENTO AL TORRENT

Importante: è un link con magnet, si dovrebbe aprire da solo. Se vi esce errore 404 nel vostro computer non è installato un programma per torrent o l’estensione che fa aprire i file magnet.

 Copiate questo link
magnet:?xt=urn:btih:5b2344a21a72137f1982085bc755e4c38db73dec&dn=La+mia+vita+con+John+F.+Donovan+%282018%29.720p.H264.ita.eng.Ac3-5.1.sub.eng-MIRCrew&tr=udp%3A%2F%2Ftracker.coppersurfer.tk%3A6969%2Fannounce

Per firefox usare questa estensione – Per Chrome usare questa estensione
Oppure usare Torxh web browser

Se i link risultassero non raggiungibili o bloccati a livello DNS

Seguite la guida Su Questo Articolo : GUIDA COME CAMBIARE DNS