La signora di Shanghai-The lady from Shanghai (1947) ITA-ENG Ac3 2.0 BDRip 1080p H264 [ArMor] – Torrent download

Ecco a voi il torrent La signora di Shanghai-The lady from Shanghai (1947) ITA-ENG Ac3 2.0 BDRip 1080p H264 [ArMor] - proveniente dagli archivi di Torrent

Lo staff di Cultura digitale al fine di promuovere la cultura condivide i contenuti presenti sul sito il corsaro nero.

Nome del Torrent: La signora di Shanghai-The lady from Shanghai (1947) ITA-ENG Ac3 2.0 BDRip 1080p H264 [ArMor] -

Descrizione del torrent: Titolo originale The Lady from ShanghaiPaese di produzione Stati Uniti d'AmericaAnno 1947Durata 86 minGenere drammatico, noir, gialloRegia Orson WellesPlot: Il marinaio irlandese Michael O'Hara (Welles) incontra la bella bionda Elsa (Rita Hayworth) mentre porta un calesse a Central Park. Tre teppisti tendono un agguato al calesse. Michael salva Elsa e la accompagna a casa. Michael le rivela di essere un marinaio e apprende che Elsa e suo marito, l'avvocato difensore parzialmente disabile, ma ricco e famoso, e molto più vecchio di lei, Arthur Bannister (Sloane), sono appena arrivati a New York da Shanghai. Stanno andando a San Francisco attraversando il canale di Panama. Michael, attratto da Elsa nonostante le perplessità, accetta di prendere lavoro come marinaio a bordo dello yacht di Bannister. Stregato dalla gelida Elsa che rivede sdraiata sulla tolda del panfilo di Bannister, Michael accetta con la segreta speranza di poter intrecciare una relazione con lei e portarla via dal vecchio marito.Fascinated by gorgeous Mrs. Bannister, seaman Michael O'Hara joins a bizarre yachting cruise, and ends up mired in a complex murder plot. GeneralUnique ID                                : 224065367617858179908916439537802085038 (0xA8916B8BA4AB42BA8F48A50C576102AE)Complete name                            : La signora di Shanghai-The lady from Shanghai (1947) ITA-ENG Ac3 2.0 BDRip 1080p H264 [ArMor.mkvFormat                                   : MatroskaFormat version                           : Version 4File size                                : 2.38 GiBDuration                                 : 1 h 27 minOverall bit rate                         : 3 889 kb/sEncoded date                             : UTC 2020-06-26 04:39:17Writing application                      : mkvmerge v15.0.0 ('Duel with the Devil' 64-bitWriting library                          : libebml v1.3.5 + libmatroska v1.4.5 / Lavf58.29.100VideoID                                       : 1Format                                   : AVCFormat/Info                              : Advanced Video CodecFormat profile                           : [email protected] settings                          : CABAC / 4 Ref FramesFormat settings, CABAC                   : YesFormat settings, Reference frames        : 4 framesCodec ID                                 : V_MPEG4/ISO/AVCDuration                                 : 1 h 27 minBit rate                                 : 3 500 kb/sWidth                                    : 1 480 pixelsHeight                                   : 1 080 pixelsDisplay aspect ratio                     : 1.370Frame rate mode                          : ConstantFrame rate                               : 23.976 (24000/1001) FPSColor space                              : YUVChroma subsampling                       : 4:2:0Bit depth                                : 8 bitsScan type                                : ProgressiveBits/(Pixel*Frame)                       : 0.091Stream size                              : 2.14 GiB (90%)Writing library                          : x264 core 157 r2935 545de2fEncoding settings                        : cabac=1 / ref=2 / deblock=1:0:0 / analyse=0x1:0x111 / me=hex / subme=6 / psy=1 / psy_rd=1.00:0.00 / mixed_ref=1 / me_range=16 / chroma_me=1 / trellis=1 / 8x8dct=0 / cqm=0 / deadzone=21,11 / fast_pskip=1 / chroma_qp_offset=-2 / threads=18 / lookahead_threads=3 / sliced_threads=0 / nr=0 / decimate=1 / interlaced=0 / bluray_compat=0 / constrained_intra=0 / bframes=3 / b_pyramid=2 / b_adapt=1 / b_bias=0 / direct=1 / weightb=1 / open_gop=0 / weightp=1 / keyint=240 / keyint_min=24 / scenecut=40 / intra_refresh=0 / rc_lookahead=30 / rc=abr / mbtree=1 / bitrate=3500 / ratetol=1.0 / qcomp=0.60 / qpmin=0 / qpmax=69 / qpstep=4 / vbv_maxrate=50000 / vbv_bufsize=62500 / nal_hrd=none / filler=0 / ip_ratio=1.40 / aq=1:1.00Default                                  : YesForced                                   : NoColor range                              : LimitedColor primaries                          : BT.709Transfer characteristics                 : BT.709Matrix coefficients                      : BT.709Audio #1ID                                       : 2Format                                   : AC-3Format/Info                              : Audio Coding 3Commercial name                          : Dolby DigitalCodec ID                                 : A_AC3Duration                                 : 1 h 27 minBit rate mode                            : ConstantBit rate                                 : 192 kb/sChannel(s)                               : 2 channelsChannel layout                           : L RSampling rate                            : 48.0 kHzFrame rate                               : 31.250 FPS (1536 SPF)Compression mode                         : LossyStream size                              : 120 MiB (5%)Title                                    : DVDLanguage                                 : ItalianService kind                             : Complete MainDefault                                  : YesForced                                   : NoAudio #2ID                                       : 3Format                                   : AC-3Format/Info                              : Audio Coding 3Commercial name                          : Dolby DigitalCodec ID                                 : A_AC3Duration                                 : 1 h 27 minBit rate mode                            : ConstantBit rate                                 : 192 kb/sChannel(s)                               : 2 channelsChannel layout                           : L RSampling rate                            : 48.0 kHzFrame rate                               : 31.250 FPS (1536 SPF)Compression mode                         : LossyStream size                              : 120 MiB (5%)Title                                    : StereoLanguage                                 : EnglishService kind                             : Complete MainDefault                                  : NoForced                                   : No

Dimensione: 2.38 GB

Categoria: BDRip

ISCRIVETEVI AL FORUM

Presto ci saranno molte novità, registratevi gratuitamente al forum

Ricordiamo a tutti che su Cultura Digitale non sono presenti nessun file, questo torrent è di proprietà del Corsaro nero. pubblicato sul loro sito al seguente indirizzo: La signora di Shanghai-The lady from Shanghai (1947) ITA-ENG Ac3 2.0 BDRip 1080p H264 [ArMor] -

COLLEGAMENTO AL TORRENT

Importante: è un link con magnet, si dovrebbe aprire da solo. Se vi esce errore 404 nel vostro computer non è installato un programma per torrent o l’estensione che fa aprire i file magnet.

 Copiate questo link
magnet:?xt=urn:btih:a71780f4a4a75e6ae35f6908931d1d060afce924&dn=La+signora+di+Shanghai-The+lady+from+Shanghai+%281947%29+ITA-ENG+Ac3+2.0+BDRip+1080p+H264+%5BArMor%5D&tr=udp%3A%2F%2Ftracker.coppersurfer.tk%3A6969%2Fannounce

Per firefox usare questa estensione – Per Chrome usare questa estensione
Oppure usare Torxh web browser

Se i link risultassero non raggiungibili o bloccati a livello DNS

Seguite la guida Su Questo Articolo : GUIDA COME CAMBIARE DNS