La storia fantastica (1987).720p.H264.ita.eng.Ac3-5.1.sub.NUita.eng-MIRCrew – Torrent download

I Testi di tutte le canzoni del Festival di Sanremo 2020
TUTTE LE CANZONI DI SANREMO 2020

Ecco a voi il torrent La storia fantastica (1987).720p.H264.ita.eng.Ac3-5.1.sub.NUita.eng-MIRCrew - proveniente dagli archivi di Torrent

Lo staff di Cultura digitale al fine di promuovere la cultura condivide i contenuti presenti sul sito il corsaro nero.

Nome del Torrent: La storia fantastica (1987).720p.H264.ita.eng.Ac3-5.1.sub.NUita.eng-MIRCrew -

Descrizione del torrent: The Princess Bride - La storia fantastica  (1987).720p.H264.ita.eng.Ac3-5.1.sub.NUita.eng-MIRCrew NO FOUND ONLY ORIGINAL RELEASEMy release is always in double track audio italian and Original audiofor select it use VLC or dvd player homenot use wmp SOTTOTITOLI ITALIANI PER NON UDENTI INCLUSILa storia fantastica - The Princess Bride (1987)Quality MIRCrew on HD 720p da 1,9 gb  Titolo originale The Princess BridePaese di produzione Stati Uniti d';AmericaAnno 1987Durata 94 minGenere avventura, fantastico, commedia, sentimentale, azioneRegia Rob ReinerSoggetto dal romanzo La principessa sposa di William GoldmanSceneggiatura William Goldman    Fred Savage: il nipote    Peter Falk: il nonno    Cary Elwes: Westley    Robin Wright: Bottondoro    Mandy Patinkin: Inigo Montoya    Chris Sarandon: Principe Humperdinck    Christopher Guest: Conte Tyrone Rugen    André Roussimoff: Fezzik    Wallace Shawn: Vizzini    Malcolm Storry: Yellin    Mel Smith: l';Albino    Billy Crystal: Max dei Miracoli    Carol Kane: Valerie, la moglie di Max dei Miracoli    Peter Cook: l';Impressionante Sacerdote    Anne Dyson: la regina    Willoughby Gray: il re    Margery Mason: la vecchia nel sogno    Betsy Brantley: la madre    Paul Badger: l';assistente brutoLa storia fantastica è un film fantasy del 1987 diretto da Rob Reiner. Il piccolo Jimmy (Fred Savage), a seguito di una fastidiosa influenza, si trova costretto a rimanere a letto. A fargli compagnia è il nonno, accolto inizialmente con poco entusiasmo dal bambino, che riesce tuttavia a catturare l’attenzione del nipote. L’anziano ha portato con sé un libro speciale al cui interno è racchiuso il racconto fantastico del regno incantato di Florin. Jimmy, si trova quindi catapultato velocemente nella storia della bellissima principessa Bottondoro (Robin Wright) perdutamente innamorata del suo servo WestleyWhile home sick in bed, a young boy';s grandfather reads him the story of a farmboy-turned-pirate who encounters numerous obstacles, enemies and allies in his quest to be reunited with his true love.   Complete name                            : La storia fantastica - The Princess Bride (1987).720p.h264.ita.eng.sub.NUita.eng-MIRCrewLa storia fantastica - The Princess Bride (1987).720p.h264.ita.eng.sub.NUita.eng-MIRCrew.mkvFormat                                   : MatroskaFormat version                           : Version 2File size                                : 1.97 GiBDuration                                 : 1h 38mnOverall bit rate                         : 2 871 KbpsMovie name                               : MIRCrewEncoded date                             : UTC 2020-02-24 21:15:07Writing application                      : mkvmerge v5.8.0 (';No Sleep / Pillow' built on Sep  2 2012 15:37:04Writing library                          : Lavf54.63.100COMMENT                                  : MIRCrewVideoID                                       : 1Format                                   : AVCFormat/Info                              : Advanced Video CodecFormat profile                           : [email protected] settings, CABAC                   : YesFormat settings, ReFrames                : 2 framesCodec ID                                 : V_MPEG4/ISO/AVCDuration                                 : 1h 38mnBit rate                                 : 2 000 KbpsWidth                                    : 1 280 pixelsHeight                                   : 688 pixelsDisplay aspect ratio                     : 16:9Frame rate mode                          : VariableFrame rate                               : 24.000 fpsColor space                              : YUVChroma subsampling                       : 4:2:0Bit depth                                : 8 bitsScan type                                : ProgressiveBits/(Pixel*Frame)                       : 0.095Stream size                              : 1.32 GiB (67%)Title                                    : MIRCrewWriting library                          : x264 core 130 r2273Encoding settings                        : cabac=1 / ref=2 / deblock=1:0:0 / analyse=0x1:0x131 / me=hex / subme=7 / psy=1 / psy_rd=1.00:0.00 / mixed_ref=0 / me_range=16 / chroma_me=1 / trellis=1 / 8x8dct=0 / cqm=0 / deadzone=21,11 / fast_pskip=1 / chroma_qp_offset=-2 / threads=9 / lookahead_threads=1 / sliced_threads=0 / nr=0 / decimate=1 / interlaced=0 / bluray_compat=0 / constrained_intra=0 / bframes=3 / b_pyramid=0 / b_adapt=1 / b_bias=0 / direct=3 / weightb=1 / open_gop=0 / weightp=2 / keyint=240 / keyint_min=24 / scenecut=40 / intra_refresh=0 / rc_lookahead=40 / rc=abr / mbtree=1 / bitrate=2000 / ratetol=1.0 / qcomp=0.60 / qpmin=10 / qpmax=69 / qpstep=4 / vbv_maxrate=24000 / vbv_bufsize=24000 / nal_hrd=none / ip_ratio=1.40 / aq=1:1.00Language                                 : ItalianDefault                                  : YesForced                                   : NoAudio #1ID                                       : 2Format                                   : AC-3Format/Info                              : Audio Coding 3Mode extension                           : CM (complete main)Codec ID                                 : A_AC3Duration                                 : 1h 38mnBit rate mode                            : ConstantBit rate                                 : 448 KbpsChannel(s)                               : 6 channelsChannel positions                        : Front: L C R, Side: L R, LFESampling rate                            : 48.0 KHzBit depth                                : 16 bitsCompression mode                         : LossyDelay relative to video                  : -5msStream size                              : 315 MiB (16%)Title                                    : Ita Ac3 5.1Language                                 : ItalianDefault                                  : NoForced                                   : NoAudio #2ID                                       : 3Format                                   : AC-3Format/Info                              : Audio Coding 3Mode extension                           : CM (complete main)Codec ID                                 : A_AC3Duration                                 : 1h 38mnBit rate mode                            : ConstantBit rate                                 : 448 KbpsChannel(s)                               : 6 channelsChannel positions                        : Front: L C R, Side: L R, LFESampling rate                            : 48.0 KHzBit depth                                : 16 bitsCompression mode                         : LossyDelay relative to video                  : -5msStream size                              : 315 MiB (16%)Title                                    : Eng Ac3 5.1Language                                 : EnglishDefault                                  : NoForced                                   : NoMenu00:00:00.000                             : :00:00:00.00000:07:02.375                             : :00:07:02.37500:17:17.292                             : :00:17:17.29200:25:00.208                             : :00:25:00.20800:29:23.833                             : :00:29:23.83300:40:25.875                             : :00:40:25.87500:50:21.250                             : :00:50:21.25001:00:25.000                             : :01:00:25.00001:06:52.750                             : :01:06:52.75001:09:59.333                             : :01:09:59.33301:18:51.583                             : :01:18:51.58301:33:29.542                             : :01:33:29.542

Dimensione: 1.97 GB

Categoria: BDRip

ISCRIVETEVI AL FORUM

Presto ci saranno molte novità, registratevi gratuitamente al forum

Ricordiamo a tutti che su Cultura Digitale non sono presenti nessun file, questo torrent è di proprietà del Corsaro nero. pubblicato sul loro sito al seguente indirizzo: La storia fantastica (1987).720p.H264.ita.eng.Ac3-5.1.sub.NUita.eng-MIRCrew -

COLLEGAMENTO AL TORRENT

Importante: è un link con magnet, si dovrebbe aprire da solo. Se vi esce errore 404 nel vostro computer non è installato un programma per torrent o l’estensione che fa aprire i file magnet.

 Copiate questo link
magnet:?xt=urn:btih:e9a1472b860ebc8deb384de17853abb5b1a10143&dn=La+storia+fantastica++%281987%29.720p.H264.ita.eng.Ac3-5.1.sub.NUita.eng-MIRCrew&tr=udp%3A%2F%2Ftracker.coppersurfer.tk%3A6969%2Fannounce

Per firefox usare questa estensione – Per Chrome usare questa estensione
Oppure usare Torxh web browser

Se i link risultassero non raggiungibili o bloccati a livello DNS

Seguite la guida Su Questo Articolo : GUIDA COME CAMBIARE DNS 

I Testi di tutte le canzoni del Festival di Sanremo 2020
TUTTE LE CANZONI DI SANREMO 2020