La verita su Emanuel-The Truth About Emanuel (2013) ITA-ENG Ac3 5.1 BDRip 1080p H264 [ArMor] – Torrent download

I Testi di tutte le canzoni del Festival di Sanremo 2020
TUTTE LE CANZONI DI SANREMO 2020

Ecco a voi il torrent La verita su Emanuel-The Truth About Emanuel (2013) ITA-ENG Ac3 5.1 BDRip 1080p H264 [ArMor] - proveniente dagli archivi di Torrent

Lo staff di Cultura digitale al fine di promuovere la cultura condivide i contenuti presenti sul sito il corsaro nero.

Nome del Torrent: La verita su Emanuel-The Truth About Emanuel (2013) ITA-ENG Ac3 5.1 BDRip 1080p H264 [ArMor] -

Descrizione del torrent: GeneralUnique ID                                : 79163169545937241022982435594738997260 (0x3B8E459969278D7FDF3FCB0D4756180C)Complete name                            : La verita su Emanuel-The Truth About Emanuel (2013) ITA-ENG Ac3 5.1 BDRip 1080p H264 [ArMor.mkvFormat                                   : MatroskaFormat version                           : Version 4File size                                : 2.70 GiBDuration                                 : 1 h 35 minOverall bit rate                         : 4 053 kb/sMovie name                               : CineBlog01HDEncoded date                             : UTC 2020-02-27 15:49:50Writing application                      : HandBrake 1.2.0 2018121700Writing library                          : Lavf58.20.100ErrorDetectionType                       : Per level 1VideoID                                       : 1Format                                   : AVCFormat/Info                              : Advanced Video CodecFormat profile                           : [email protected] settings                          : CABAC / 4 Ref FramesFormat settings, CABAC                   : YesFormat settings, Reference frames        : 4 framesCodec ID                                 : V_MPEG4/ISO/AVCDuration                                 : 1 h 35 minBit rate                                 : 3 200 kb/sWidth                                    : 1 920 pixelsHeight                                   : 816 pixelsDisplay aspect ratio                     : 2.35:1Frame rate mode                          : ConstantFrame rate                               : 24.000 FPSColor space                              : YUVChroma subsampling                       : 4:2:0Bit depth                                : 8 bitsScan type                                : ProgressiveBits/(Pixel*Frame)                       : 0.085Stream size                              : 2.05 GiB (76%)Writing library                          : x264 core 157 r2935 545de2fEncoding settings                        : cabac=1 / ref=2 / deblock=1:0:0 / analyse=0x1:0x111 / me=hex / subme=6 / psy=1 / psy_rd=1.00:0.00 / mixed_ref=1 / me_range=16 / chroma_me=1 / trellis=1 / 8x8dct=0 / cqm=0 / deadzone=21,11 / fast_pskip=1 / chroma_qp_offset=-2 / threads=18 / lookahead_threads=3 / sliced_threads=0 / nr=0 / decimate=1 / interlaced=0 / bluray_compat=0 / constrained_intra=0 / bframes=3 / b_pyramid=2 / b_adapt=1 / b_bias=0 / direct=1 / weightb=1 / open_gop=0 / weightp=1 / keyint=240 / keyint_min=24 / scenecut=40 / intra_refresh=0 / rc_lookahead=30 / rc=abr / mbtree=1 / bitrate=3200 / ratetol=1.0 / qcomp=0.60 / qpmin=0 / qpmax=69 / qpstep=4 / vbv_maxrate=50000 / vbv_bufsize=62500 / nal_hrd=none / filler=0 / ip_ratio=1.40 / aq=1:1.00Default                                  : YesForced                                   : NoColor range                              : LimitedColor primaries                          : BT.709Transfer characteristics                 : BT.709Matrix coefficients                      : BT.709Audio #1ID                                       : 2Format                                   : AC-3Format/Info                              : Audio Coding 3Commercial name                          : Dolby DigitalCodec ID                                 : A_AC3Duration                                 : 1 h 35 minBit rate mode                            : ConstantBit rate                                 : 448 kb/sChannel(s)                               : 6 channelsChannel layout                           : L R C LFE Ls RsSampling rate                            : 48.0 kHzFrame rate                               : 31.250 FPS (1536 SPF)Compression mode                         : LossyStream size                              : 305 MiB (11%)Title                                    : SurroundLanguage                                 : ItalianService kind                             : Complete MainDefault                                  : YesForced                                   : NoAudio #2ID                                       : 3Format                                   : AC-3Format/Info                              : Audio Coding 3Commercial name                          : Dolby DigitalCodec ID                                 : A_AC3Duration                                 : 1 h 35 minBit rate mode                            : ConstantBit rate                                 : 448 kb/sChannel(s)                               : 6 channelsChannel layout                           : L R C LFE Ls RsSampling rate                            : 48.0 kHzFrame rate                               : 31.250 FPS (1536 SPF)Compression mode                         : LossyStream size                              : 305 MiB (11%)Title                                    : SurroundLanguage                                 : EnglishService kind                             : Complete MainDefault                                  : NoForced                                   : No

Dimensione: 2.70 GB

Categoria: BDRip

ISCRIVETEVI AL FORUM

Presto ci saranno molte novità, registratevi gratuitamente al forum

Ricordiamo a tutti che su Cultura Digitale non sono presenti nessun file, questo torrent è di proprietà del Corsaro nero. pubblicato sul loro sito al seguente indirizzo: La verita su Emanuel-The Truth About Emanuel (2013) ITA-ENG Ac3 5.1 BDRip 1080p H264 [ArMor] -

COLLEGAMENTO AL TORRENT

Importante: è un link con magnet, si dovrebbe aprire da solo. Se vi esce errore 404 nel vostro computer non è installato un programma per torrent o l’estensione che fa aprire i file magnet.

 Copiate questo link
magnet:?xt=urn:btih:b63b5dd5ce10871c695bc7f4e4158d2b5406595a&dn=La+verita+su+Emanuel-The+Truth+About+Emanuel+%282013%29+ITA-ENG+Ac3+5.1+BDRip+1080p+H264+%5BArMor%5D&tr=udp%3A%2F%2Ftracker.coppersurfer.tk%3A6969%2Fannounce

Per firefox usare questa estensione – Per Chrome usare questa estensione
Oppure usare Torxh web browser

Se i link risultassero non raggiungibili o bloccati a livello DNS

Seguite la guida Su Questo Articolo : GUIDA COME CAMBIARE DNS 

I Testi di tutte le canzoni del Festival di Sanremo 2020
TUTTE LE CANZONI DI SANREMO 2020