Land of the Lost (2009).1080p.H264.ita.eng.Ac3-5.1.sub.ita.eng-MIRCrew – Torrent download

I Testi di tutte le canzoni del Festival di Sanremo 2020
TUTTE LE CANZONI DI SANREMO 2020

Ecco a voi il torrent Land of the Lost (2009).1080p.H264.ita.eng.Ac3-5.1.sub.ita.eng-MIRCrew - proveniente dagli archivi di Torrent

Lo staff di Cultura digitale al fine di promuovere la cultura condivide i contenuti presenti sul sito il corsaro nero.

Nome del Torrent: Land of the Lost (2009).1080p.H264.ita.eng.Ac3-5.1.sub.ita.eng-MIRCrew -

Descrizione del torrent: Land of the Lost (2009).1080p.H264.ita.eng.Ac3-5.1.sub.ita.eng-MIRCrew NO FOUND ONLY ORIGINAL RELEASEMy release is always in double track audio italian and Original audiofor select it use VLC or dvd player homenot use wmp Land of the Lost (2009)Quality MIRCrew on HD 1080p da 2,3 gb  Titolo originale Land of the LostLingua originale inglesePaese di produzione Stati Uniti d';AmericaAnno 2009Durata 102 minRapporto 1,85 : 1Genere avventura, commedia, fantascienzaRegia Brad SilberlingSoggetto Sid Krofft, Marty KrofftSceneggiatura Chris Henchy, Dennis McNicholas (serie televisiva)    Will Ferrell: dott. Rick Marshall    Anna Friel: Holly Cantrell    Danny McBride: Will Stanton    Jorma Taccone: Chaka    John Boylan: Enik    Matt Lauer: se stessoUn modesto scienziato scopre un varco spazio-temporale verso un';altra dimensione dove passato, presente e futuro sono fusi tra loro. Bloccato nel mondo parallelo, si trova a lottare contro piante, dinosauri e alieni che vogliono dominare il mondo, tra le reliquie insabbiate della civiltà occidentale. In questa realtà parallela incontrano Chaka, un Australopithecus che li accompagnerà per l';intera avventura. On his latest expedition, Dr. Rick Marshall is sucked into a space-time vortex alongside his research assistant and a redneck survivalist. In this alternate universe, the trio make friends with a primate named Chaka, their only ally in a world full of dinosaurs and other fantastic creatures. .   GeneralUnique ID                                : 88374569410748188938564714190701784770 (0x427C52AD2E9CBFBABBD9F3C58E4EEEC2)Complete name                            : Land of the Lost (2009).1080p.H264.ita.eng.sub.ita.eng-MIRCrew-MIRCrewLand of the Lost (2009).1080p.H264.ita.eng.sub.ita.eng-MIRCrew-MIRCrew.mkvFormat                                   : MatroskaFormat version                           : Version 4 / Version 2File size                                : 2.28 GiBDuration                                 : 1h 37mnOverall bit rate                         : 3 352 KbpsEncoded date                             : UTC 2020-02-23 22:47:22Writing application                      : mkvmerge v26.0.0 (';In The Game' 64-bitWriting library                          : Lavf58.20.100VideoID                                       : 1Format                                   : AVCFormat/Info                              : Advanced Video CodecFormat profile                           : [email protected] settings, CABAC                   : YesFormat settings, ReFrames                : 4 framesCodec ID                                 : V_MPEG4/ISO/AVCDuration                                 : 1h 37mnBit rate                                 : 2 600 KbpsWidth                                    : 1 920 pixelsHeight                                   : 1 040 pixelsDisplay aspect ratio                     : 16:9Frame rate                               : 23.976 fpsColor space                              : YUVChroma subsampling                       : 4:2:0Bit depth                                : 8 bitsScan type                                : ProgressiveBits/(Pixel*Frame)                       : 0.054Stream size                              : 1.71 GiB (75%)Title                                    : MIRCrewWriting library                          : x264 core 157 r2935 545de2fEncoding settings                        : cabac=1 / ref=2 / deblock=1:0:0 / analyse=0x1:0x111 / me=hex / subme=6 / psy=1 / psy_rd=1.00:0.00 / mixed_ref=1 / me_range=16 / chroma_me=1 / trellis=1 / 8x8dct=0 / cqm=0 / deadzone=21,11 / fast_pskip=1 / chroma_qp_offset=-2 / threads=6 / lookahead_threads=1 / sliced_threads=0 / nr=0 / decimate=1 / interlaced=0 / bluray_compat=0 / constrained_intra=0 / bframes=3 / b_pyramid=2 / b_adapt=1 / b_bias=0 / direct=1 / weightb=1 / open_gop=0 / weightp=1 / keyint=240 / keyint_min=24 / scenecut=40 / intra_refresh=0 / rc_lookahead=30 / rc=abr / mbtree=1 / bitrate=2600 / ratetol=1.0 / qcomp=0.60 / qpmin=0 / qpmax=69 / qpstep=4 / vbv_maxrate=50000 / vbv_bufsize=62500 / nal_hrd=none / filler=0 / ip_ratio=1.40 / aq=1:1.00Language                                 : ItalianDefault                                  : YesForced                                   : NoDURATION                                 : 01:37:31.054000000NUMBER_OF_FRAMES                         : 140285NUMBER_OF_BYTES                          : 1888369905_STATISTICS_WRITING_APP                  : mkvmerge v26.0.0 (';In The Game' 64-bit_STATISTICS_WRITING_DATE_UTC             : 2020-02-23 22:47:22_STATISTICS_TAGS                         : BPS DURATION NUMBER_OF_FRAMES NUMBER_OF_BYTESColor primaries                          : BT.709-5, BT.1361, IEC 61966-2-4, SMPTE RP177Transfer characteristics                 : BT.709-5, BT.1361Matrix coefficients                      : BT.709-5, BT.1361, IEC 61966-2-4 709, SMPTE RP177Audio #1ID                                       : 2Format                                   : AC-3Format/Info                              : Audio Coding 3Mode extension                           : CM (complete main)Codec ID                                 : A_AC3Duration                                 : 1h 37mnBit rate mode                            : ConstantBit rate                                 : 384 KbpsChannel(s)                               : 6 channelsChannel positions                        : Front: L C R, Side: L R, LFESampling rate                            : 48.0 KHzBit depth                                : 16 bitsCompression mode                         : LossyDelay relative to video                  : 19msStream size                              : 268 MiB (11%)Title                                    : Ita Ac3 5.1Language                                 : ItalianDefault                                  : YesForced                                   : NoDURATION                                 : 01:37:25.792000000NUMBER_OF_FRAMES                         : 182681NUMBER_OF_BYTES                          : 280598016_STATISTICS_WRITING_APP                  : mkvmerge v26.0.0 (';In The Game' 64-bit_STATISTICS_WRITING_DATE_UTC             : 2020-02-23 22:47:22_STATISTICS_TAGS                         : BPS DURATION NUMBER_OF_FRAMES NUMBER_OF_BYTESAudio #2ID                                       : 3Format                                   : AC-3Format/Info                              : Audio Coding 3Mode extension                           : CM (complete main)Codec ID                                 : A_AC3Duration                                 : 1h 37mnBit rate mode                            : ConstantBit rate                                 : 384 KbpsChannel(s)                               : 6 channelsChannel positions                        : Front: L C R, Side: L R, LFESampling rate                            : 48.0 KHzBit depth                                : 16 bitsCompression mode                         : LossyDelay relative to video                  : -5msStream size                              : 268 MiB (11%)Title                                    : Eng Ac3 5.1Language                                 : EnglishDefault                                  : NoForced                                   : NoDURATION                                 : 01:37:31.136000000NUMBER_OF_FRAMES                         : 182848NUMBER_OF_BYTES                          : 280854528_STATISTICS_WRITING_APP                  : mkvmerge v26.0.0 (';In The Game' 64-bit_STATISTICS_WRITING_DATE_UTC             : 2020-02-23 22:47:22_STATISTICS_TAGS                         : BPS DURATION NUMBER_OF_FRAMES NUMBER_OF_BYTES

Dimensione: 2.28 GB

Categoria: BDRip

ISCRIVETEVI AL FORUM

Presto ci saranno molte novità, registratevi gratuitamente al forum

Ricordiamo a tutti che su Cultura Digitale non sono presenti nessun file, questo torrent è di proprietà del Corsaro nero. pubblicato sul loro sito al seguente indirizzo: Land of the Lost (2009).1080p.H264.ita.eng.Ac3-5.1.sub.ita.eng-MIRCrew -

COLLEGAMENTO AL TORRENT

Importante: è un link con magnet, si dovrebbe aprire da solo. Se vi esce errore 404 nel vostro computer non è installato un programma per torrent o l’estensione che fa aprire i file magnet.

 Copiate questo link
magnet:?xt=urn:btih:99452bbee6bb38452e8c08b22fc8f35c4cdf4cbe&dn=Land+of+the+Lost+%282009%29.1080p.H264.ita.eng.Ac3-5.1.sub.ita.eng-MIRCrew&tr=udp%3A%2F%2Ftracker.coppersurfer.tk%3A6969%2Fannounce

Per firefox usare questa estensione – Per Chrome usare questa estensione
Oppure usare Torxh web browser

Se i link risultassero non raggiungibili o bloccati a livello DNS

Seguite la guida Su Questo Articolo : GUIDA COME CAMBIARE DNS 

I Testi di tutte le canzoni del Festival di Sanremo 2020
TUTTE LE CANZONI DI SANREMO 2020